<?xml version="1.0" standalone="no"?>
<!DOCTYPE svg PUBLIC "-//W3C//DTD SVG 1.1//EN" "http://www.w3.org/Graphics/SVG/1.1/DTD/svg11.dtd" >
<svg xmlns="http://www.w3.org/2000/svg" xmlns:xlink="http://www.w3.org/1999/xlink" version="1.1">
<metadata></metadata>
<defs>
<font id="primetimeregular" horiz-adv-x="823" >
<font-face units-per-em="2048" ascent="1997" descent="-51" />
<missing-glyph horiz-adv-x="655" />
<glyph horiz-adv-x="0" />
<glyph unicode="&#xd;" />
<glyph />
<glyph />
<glyph />
<glyph unicode="&#x9;" />
<glyph unicode="&#xa;" />
<glyph unicode=" "  horiz-adv-x="655" />
<glyph unicode="&#x09;" horiz-adv-x="655" />
<glyph unicode="&#xa0;" horiz-adv-x="655" />
<glyph unicode="!" horiz-adv-x="700" d="M176 141q0 41 15.5 77t42 61.5t61.5 41t76 15.5q39 0 74.5 -15.5t62.5 -41t42 -61.5t15 -77t-15 -74.5t-42 -60t-62.5 -41t-74.5 -14.5q-41 0 -76 14.5t-61.5 41t-42 60t-15.5 74.5zM178 1634h385l-18 -1228h-346z" />
<glyph unicode="&#x22;" horiz-adv-x="1052" d="M217 1677l258 -2l-22 -600h-217zM627 1677l258 -2l-23 -600h-217z" />
<glyph unicode="#" horiz-adv-x="1943" d="M-33 250l58 358l1800 -10l-58 -358zM86 979l59 358l1801 -10l-60 -358zM238 -49l278 1683l381 -2l-279 -1683zM1016 -53l278 1683l381 -2l-278 -1683z" />
<glyph unicode="$" horiz-adv-x="1562" d="M184 88l166 393q86 -29 171 -57.5t175 -46.5v325q-51 12 -103 24.5t-102.5 31t-96.5 45t-83 67.5q-104 115 -104 269q0 123 60.5 234.5t158.5 182.5q59 43 129 68t141 35v246h213v-250q119 -16 229.5 -60.5t219.5 -93.5q-49 -78 -96.5 -155.5t-100.5 -153.5 q-66 23 -126 50.5t-126 43.5v-264q100 -23 198.5 -61.5t175.5 -100t125 -148.5t48 -204q0 -82 -27.5 -168t-70.5 -156q-37 -57 -87 -98t-108.5 -68.5t-123 -44t-130.5 -22.5v-240h-213v246q-133 16 -259 53t-253 78zM621 1169q0 -37 21.5 -60.5t53.5 -37.5v213 q-76 -33 -75 -115zM909 373q45 14 83 49t38 88q0 51 -39 86t-82 51v-274z" />
<glyph unicode="%" horiz-adv-x="2123" d="M117 1188q0 88 30.5 169t86 142.5t132 98t169.5 36.5q88 0 163.5 -37.5t131 -99t86 -141.5t30.5 -164q0 -90 -31.5 -171t-88 -142.5t-134.5 -98.5t-170 -37q-88 0 -162.5 38t-128 99.5t-84 141.5t-30.5 166zM223 -49l1235 1640h395l-1226 -1640h-404zM408 1194 q0 -53 34.5 -96t89.5 -43q57 0 91 43t34 96t-34 97t-91 44q-55 0 -89.5 -44t-34.5 -97zM1163 393q0 88 31 169t87 142.5t133 98.5t169 37q88 0 164 -37t131 -98.5t86 -141.5t31 -166q0 -90 -32 -170t-89 -141t-134 -97t-169 -36q-90 0 -165 37t-128 98.5t-84 140t-31 164.5z M1456 401q0 -53 34 -97t91 -44q55 0 90 44t35 97t-35 96.5t-90 43.5q-57 0 -91 -43t-34 -97z" />
<glyph unicode="&#x26;" horiz-adv-x="1699" d="M115 1104q0 123 60.5 221t154.5 167t209.5 104.5t226.5 35.5t217.5 -33.5t210.5 -99.5l-213 -268q-102 63 -209 63q-39 0 -84 -12t-84 -33.5t-64.5 -53.5t-25.5 -71q0 -29 22.5 -50t61.5 -38q18 -8 37.5 -14t38.5 -12q20 -8 38.5 -14.5t39.5 -16.5l12 -279q0 -8 -9.5 -17 t-19.5 -15q-8 -4 -15 -8.5t-9 -6.5q-18 -10 -35 -18t-33 -17q-14 -10 -27.5 -17t-23.5 -17q-23 -20 -38 -47t-26 -68q-4 -16 -4 -25q0 -31 20.5 -55t51.5 -41.5t66.5 -26t68.5 -8.5q59 0 113.5 27t95.5 70h-82v297h545q70 0 135.5 42t99.5 119l199 -206q-37 -82 -85 -131.5 t-107.5 -76t-128 -35.5t-144.5 -9q-41 -100 -104.5 -184.5t-144.5 -146t-181 -95t-215 -33.5q-111 0 -219.5 41t-194.5 112.5t-140 171t-54 213.5q0 43 9 92.5t26.5 96.5t43 91t56.5 77q-14 12 -25.5 24.5t-21.5 22.5q-29 29 -47 59q-23 31 -34 68t-11 84z" />
<glyph unicode="'" horiz-adv-x="663" d="M207 1688l289 -2l-23 -574l-248 2z" />
<glyph unicode="(" horiz-adv-x="917" d="M76 766q0 342 140 644t392 527l238 -309q-184 -166 -288.5 -388t-104.5 -472q0 -176 54 -338t163 -303q37 -49 84 -93t94 -85l-238 -309q-66 53 -125 112.5t-110 124.5q-147 193 -223 420t-76 469z" />
<glyph unicode=")" horiz-adv-x="1026" d="M113 -51q47 41 93 85t85 93q106 141 161.5 303t55.5 338q0 250 -104.5 472t-290.5 388l239 309q125 -113 223.5 -245.5t167 -282t105.5 -311.5t37 -332q0 -242 -76 -469t-223 -420q-51 -66 -112 -125t-124 -112z" />
<glyph unicode="*" />
<glyph unicode="+" horiz-adv-x="1153" d="M162 580v294h274v265h309v-265h277v-294h-277v-265h-309v265h-274z" />
<glyph unicode="," horiz-adv-x="753" d="M266 -264l41 508l283 -68l-111 -491z" />
<glyph unicode="-" horiz-adv-x="1656" d="M629 504v270h719v-270h-719z" />
<glyph unicode="." horiz-adv-x="1028" d="M471 139q0 39 15.5 74t42 61.5t62.5 41t75 14.5t74.5 -14.5t62 -41t42 -61.5t15.5 -74q0 -80 -57 -134t-137 -54q-39 0 -75 14.5t-62.5 40t-42 59t-15.5 74.5z" />
<glyph unicode="/" horiz-adv-x="1583" d="M-35 -49l1258 1638h497l-1251 -1638h-504z" />
<glyph unicode="0" horiz-adv-x="2023" d="M0 971q4 2 4 8q4 129 39 245.5t102 227.5q23 39 58 86t77 92t86 83t85 59l2 8h8l4 6q6 4 13 6t14 6q12 8 23 15.5t22 15.5q29 16 60.5 28.5t61.5 24.5q84 33 171.5 48.5t177.5 15.5q197 0 382 -73t326 -212q47 -47 90 -99.5t78 -111.5q10 -18 18.5 -38.5t18.5 -39.5 q6 -12 13.5 -22.5t11.5 -22.5q16 -33 25 -66.5t20 -68.5q20 -80 26 -148.5t6 -152.5q0 -6 -1 -22.5t-3 -34t-4 -34t-2 -24.5q-4 -25 -10 -49.5t-12 -48.5q-45 -168 -139.5 -306.5t-223.5 -237.5t-286.5 -154.5t-331.5 -55.5q-217 0 -404.5 83t-324 225.5t-212 333 t-69.5 405.5zM164 -326h39q2 -10 4 -21t2 -22q4 10 8 20.5t4 22.5h31q4 -10 5 -21t5 -22q8 8 7 20.5t5 22.5h76v-6q0 -10 3 -16t1 -17q10 4 11.5 16.5t5.5 22.5h28q0 -12 5.5 -22t3.5 -21q8 8 8 20.5t4 22.5h76q4 -10 4 -21t4 -22q4 10 7 20.5t3 22.5h31q4 -10 6 -21t6 -22 q6 8 6 20.5t4 22.5h35q-2 -31 -10 -60.5t-12 -57.5h-39v4q2 10 -3.5 18t-2.5 19q-8 -8 -10.5 -19.5t-2.5 -21.5h-39q-6 27 -11 52t-15 50q-16 -53 -23 -102h-37q-4 10 -6 19t-6 17q-8 -6 -7 -17t-5 -19h-37q-4 29 -11.5 53t-11.5 53q-12 -25 -15 -52.5t-11 -53.5h-39v4 q2 10 -4 18t-4 19q-6 -8 -8.5 -19.5t-2.5 -21.5h-39q-4 29 -13 58t-13 60zM195 1085q12 -2 24 -1t25 1h13t13 -4v-663h297v256v44t4 44q29 -2 57.5 -1t57.5 1h33.5t36.5 -4v-336q29 -4 57.5 -4h56.5q45 0 90.5 1t92.5 -1v964q-47 -2 -92.5 0t-90.5 2q-59 0 -114 -6v-311 h-189q0 47 1 96t1 97q0 61 -6 122h-280q-4 0 -5.5 -4t-3.5 -6q-18 -72 -40.5 -143.5t-38.5 -143.5zM367 -162q4 10 5 18.5t5 18.5h76v-2q2 -10 -3.5 -17.5t-3.5 -17.5q-6 -2 -12 -1t-12 1q-8 0 -10 -4q4 -6 15 -5t17 1h7q-2 -10 -6.5 -16.5t-2.5 -18.5h-30v-41h-21 q-14 0 -18 4l2 74q0 2 -8 6zM457 -162q4 10 6 18.5t6 18.5h35q0 -12 -1 -24.5t-1 -24.5q0 -20 8 -35h6q10 0 10 12.5v20.5v51h21q12 0 16 -4l2 -37q0 -27 -7 -53.5t-42 -26.5q-23 0 -43 19q-4 16 -4 29.5v29.5q0 4 -4 5t-8 1zM567 -162q4 8 6 17.5t7 19.5h20q12 0 16 -4 q0 -18 -1 -37.5t1 -38.5q2 -4 9.5 -4h11.5h4q-4 -10 -6 -18.5t-6 -18.5h-49v78q0 4 -4.5 4t-8.5 2zM604 -426q0 18 21 18q18 0 18 -18q1 -23 -22 -23q-16 8 -17 23zM641 -162q4 10 5 18.5t5 18.5h35q0 -20 -1 -39.5t1 -40.5q0 -4 7 -4h12h4v-4q2 -10 -3.5 -16.5t-5.5 -16.5 q-8 0 -15 -1t-15 -1q-14 0 -23 6l2 72q0 8 -8 8zM645 -360q0 10 3 17t3 17h39v-39h19q6 4 4 15.5t0 17.5v6q6 -2 11 -1t11 1h8.5t8.5 -4v-114h-39v41h-19q-6 -4 -5 -16.5t1 -18.5v-6h-39v67q2 2 2 6t-4 5t-4 6zM752 -125h36q4 -12 9.5 -23.5t7.5 -25.5q10 8 12 23.5t6 25.5 h39q-6 -31 -17 -61.5t-22 -59.5h-30q-10 29 -21.5 59.5t-19.5 61.5zM756 -326h37l12 -24q4 4 5 11t5 13h39q-4 -18 -10 -30.5t-12.5 -24.5t-9.5 -26.5t1 -36.5h-39q0 37 -2 51t-6 21t-9 14t-11 32zM850 -365q4 10 6 19.5t6 19.5h19q23 0 45 -9t22 -38q0 -23 -22 -45h-2 q-8 0 -11.5 -3t-13.5 -1v-22h-37v75q0 4 -5 4h-7zM858 -162q4 8 6 17.5t4 19.5h80q-4 -10 -7 -18.5t-3 -18.5q-4 -2 -10 -1t-10 1q-8 0 -11 -4q4 -6 15.5 -5t17.5 1h6q-2 -8 -4 -15.5t-4 -15.5h-31q4 -6 15.5 -4t17.5 0h6v-2q0 -10 -4 -19.5t-8 -19.5h-66v80q0 4 -4 3t-6 1z M899 -365v-18l4 -2q8 0 8 10t-8 10h-4zM952 -160q0 10 4.5 17.5t8.5 17.5h16q29 2 50.5 -5t21.5 -42q0 -10 -3 -20.5t-14 -16.5q0 -10 8.5 -16t8.5 -19v-2q-6 -2 -17 -2q-12 0 -23.5 4t-11.5 21q-4 -2 -4 -6v-9q0 -8 -2 -8h-34v78q0 4 -4.5 4t-4.5 4zM952 -360q0 4 5.5 17 t7.5 17l12 -2q14 0 27.5 3t27.5 3l8 -2l-4 -20t-6 -21h-31q4 -6 15.5 -4t15.5 0h6q0 -2 1 -3t1 -3q0 -6 -3 -12t-3 -12q-4 -2 -10 -1t-12 1q-8 0 -11 -4q4 -4 16.5 -3.5t18.5 0.5l6 -2q-4 -10 -5 -18t-5 -18h-69v73q0 4 -4.5 5t-4.5 6zM999 -162v-20h5q12 0 10 12v4 q-4 0 -6 2t-7 2h-2zM1044 -356q6 4 6.5 13t6.5 17l12 -2q14 0 26.5 3t26.5 3l11 -2q-4 -23 -13 -41h-30q0 -10 13 -8t19 2q2 0 3 -1t3 -1q-2 -16 -12 -35h-26v-36h-37q-4 14 -2 27.5t2 29.5q0 10 -4.5 18.5t-4.5 12.5zM1063 -160q0 20 20.5 28.5t36.5 8.5q15 0 31 -6 q-4 -8 -5 -16.5t-7 -16.5q-6 0 -12.5 2t-14.5 2q-4 0 -6 -2q6 -10 18.5 -12t22.5 -10q6 -10 6 -23q0 -14 -6 -26q-16 -14 -43 -15q-18 0 -37 6v4q0 10 3 17.5t5 17.5q8 -2 15.5 -5t15.5 -3h6q0 10 -10 12t-19 4q-6 10 -13 15.5t-7 17.5zM1112 1085q12 -2 24.5 -1t24.5 1 q18 0 29 -4v-663h297v325h225q16 68 38 134.5t38 136.5h-301q2 10 1 21.5t-1 21.5v13t4 11h252q18 82 43.5 162t46.5 162h-283q-10 -5 -6 -19q-72 -6 -144.5 -5t-144.5 1h-55q-25 -74 -44 -148.5t-44 -148.5zM1139 -379q0 23 19.5 37t41.5 14q27 0 44.5 -16t17.5 -43 q0 -23 -21.5 -44.5t-44.5 -17.5v5q-29 0 -43 18t-14 47zM1155 -162q4 10 6 18.5t4 18.5h35v-121h-35l2 78q0 4 -4 5t-8 1zM1178 -387q0 -8 8 -21q4 0 6 -1t6 -1q20 0 25 27q-2 4 -5.5 9t-5.5 9q-4 0 -5 1.5t-5 1.5q-25 0 -24 -25zM1212 -178q0 18 14.5 32.5t30.5 16.5 q4 4 17 4q10 0 20.5 -5t20.5 -9q10 -16 18 -43q-4 -23 -17 -43.5t-40 -20.5q-29 0 -46.5 19.5t-17.5 48.5zM1249 -182q0 -27 29 -27h2q14 10 14 25q0 8 -6 18q-8 4 -16 4t-15.5 -5t-7.5 -15zM1262 -365q4 10 6 19.5t6 19.5h37q2 -12 9 -20t11 -19q4 4 3 15.5t-1 17.5v6h39 v-118h-35l-12 24t-18 21v-45h-33v75q0 4 -4 4h-8zM1333 -162q4 10 6 18.5t7 18.5h34q6 -10 12.5 -18.5t10.5 -18.5q4 2 4 11.5v15.5q0 8 4 10h33v-121h-31q-8 10 -15 23.5t-14 25.5q-6 -6 -5 -19t1 -24v-6h-34v78q0 4 -4.5 4t-8.5 2zM1380 -365q0 10 3 19.5t3 19.5l13 -2 q14 0 27.5 3t27.5 3l10 -2q-4 -10 -6 -26.5t-20 -14.5v-79h-39v75q0 6 -6.5 5t-10.5 -1h-2zM1464 -360q0 20 18.5 28t35.5 8q14 0 30 -6v-6q0 -8 -3 -11t-1 -13q-4 -4 -6 -5q-6 0 -11 2.5t-11 2.5q-8 0 -11 -5q16 -4 32.5 -13t16.5 -30q0 -14 -15.5 -27.5t-29.5 -13.5h-12v5 q-8 0 -18.5 2t-10.5 12q6 10 2 22q8 4 9 5q8 0 15 -4.5t15 -4.5l4 2q0 6 -8 9.5t-17 7.5t-16.5 10t-7.5 23zM1495 -182q0 18 14.5 34.5t30.5 18.5q6 6 16 6t20.5 -6t20.5 -10q6 -10 12.5 -22.5t6.5 -24.5q0 -27 -17.5 -42.5t-42.5 -15.5q-29 0 -45 16.5t-16 45.5zM1532 -186 q-1 -23 24 -23q23 0 23 25q0 10 -8 16t-17 6q-8 0 -6 -4q-16 -2 -16 -20zM1559 -426q0 20 20 20q8 0 11 -6t7 -10v-6q0 -10 -7 -13.5t-11 -7.5h-4q-8 0 -12 9.5t-4 13.5zM1599 -383q0 27 19.5 42t44.5 15q20 0 37 -12q-4 -10 -8 -17t-6 -18q-8 8 -25 8q-6 0 -12.5 -2 t-10.5 -10v-18q0 -6 7.5 -8.5t11.5 -2.5q8 0 14 2.5t15 2.5q2 0 2 -2q2 -8 5 -13.5t7 -13.5q-4 -10 -15.5 -11.5t-19.5 -7.5h-10v5q-27 2 -41.5 19t-14.5 42zM1620 -158q0 10 4 16.5t4 16.5h33q8 -10 14 -18.5t11 -18.5q4 2 3 11.5t-1 15.5t4 10h34v-121h-30 q-4 12 -13.5 22.5t-13.5 22.5q-6 -4 -4 -16t2 -19l-2 -6q-4 -4 -16 -4h-21v78q0 4 -4 4t-4 6zM1706 -387q0 27 15.5 43t43.5 16q23 0 42.5 -15t19.5 -40q0 -27 -19.5 -47.5t-46.5 -18.5v5q-23 0 -39 17t-16 40zM1745 -385q0 -19 16 -25q18 0 27 15v6q2 14 -6 20.5t-21 3.5 h-8q-8 -8 -8 -20zM1829 -360q0 8 4 16t4 18h39q4 -6 7 -13t11 -11q6 4 10.5 11t8.5 13h39v-118h-39v53q0 2 -2 2q-4 0 -7 -7t-6 -12h-2q-10 0 -11 9.5t-9 11.5v-57h-39v73q0 4 -4 5t-4 6z" />
<glyph unicode="1" horiz-adv-x="2023" d="M0 971q4 2 4 8q4 129 39 245.5t102 227.5q23 39 58 86t77 92t86 83t85 59l2 8h8l4 6q6 4 13 6t14 6q12 8 23 15.5t22 15.5q29 16 60.5 28.5t61.5 24.5q84 33 171.5 48.5t177.5 15.5q197 0 382 -73t326 -212q47 -47 90 -99.5t78 -111.5q10 -18 18.5 -38.5t18.5 -39.5 q6 -12 13.5 -22.5t11.5 -22.5q16 -33 25 -66.5t20 -68.5q20 -80 26 -148.5t6 -152.5q0 -6 -1 -22.5t-3 -34t-4 -34t-2 -24.5q-4 -25 -10 -49.5t-12 -48.5q-45 -168 -139.5 -306.5t-223.5 -237.5t-286.5 -154.5t-331.5 -55.5q-217 0 -404.5 83t-324 225.5t-212 333 t-69.5 405.5zM164 -326h39q2 -10 4 -21t2 -22q4 10 8 20.5t4 22.5h31q4 -10 5 -21t5 -22q8 8 7 20.5t5 22.5h76v-6q0 -10 3 -16t1 -17q10 4 11.5 16.5t5.5 22.5h28q0 -12 5.5 -22t3.5 -21q8 8 8 20.5t4 22.5h76q4 -10 4 -21t4 -22q4 10 7 20.5t3 22.5h31q4 -10 6 -21t6 -22 q6 8 6 20.5t4 22.5h35q-2 -31 -10 -60.5t-12 -57.5h-39v4q2 10 -3.5 18t-2.5 19q-8 -8 -10.5 -19.5t-2.5 -21.5h-39q-6 27 -11 52t-15 50q-16 -53 -23 -102h-37q-4 10 -6 19t-6 17q-8 -6 -7 -17t-5 -19h-37q-4 29 -11.5 53t-11.5 53q-12 -25 -15 -52.5t-11 -53.5h-39v4 q2 10 -4 18t-4 19q-6 -8 -8.5 -19.5t-2.5 -21.5h-39q-4 29 -13 58t-13 60zM195 1085q12 -2 24 -1t25 1h13t13 -4v-663h297v256v44t4 44q29 -2 57.5 -1t57.5 1h33.5t36.5 -4v-336q29 -4 57.5 -4h56.5q45 0 90.5 1t92.5 -1v964q-47 -2 -92.5 0t-90.5 2q-59 0 -114 -6v-311 h-189q0 47 1 96t1 97q0 61 -6 122h-280q-4 0 -5.5 -4t-3.5 -6q-18 -72 -40.5 -143.5t-38.5 -143.5zM367 -162q4 10 5 18.5t5 18.5h76v-2q2 -10 -3.5 -17.5t-3.5 -17.5q-6 -2 -12 -1t-12 1q-8 0 -10 -4q4 -6 15 -5t17 1h7q-2 -10 -6.5 -16.5t-2.5 -18.5h-30v-41h-21 q-14 0 -18 4l2 74q0 2 -8 6zM457 -162q4 10 6 18.5t6 18.5h35q0 -12 -1 -24.5t-1 -24.5q0 -20 8 -35h6q10 0 10 12.5v20.5v51h21q12 0 16 -4l2 -37q0 -27 -7 -53.5t-42 -26.5q-23 0 -43 19q-4 16 -4 29.5v29.5q0 4 -4 5t-8 1zM567 -162q4 8 6 17.5t7 19.5h20q12 0 16 -4 q0 -18 -1 -37.5t1 -38.5q2 -4 9.5 -4h11.5h4q-4 -10 -6 -18.5t-6 -18.5h-49v78q0 4 -4.5 4t-8.5 2zM604 -426q0 18 21 18q18 0 18 -18q1 -23 -22 -23q-16 8 -17 23zM641 -162q4 10 5 18.5t5 18.5h35q0 -20 -1 -39.5t1 -40.5q0 -4 7 -4h12h4v-4q2 -10 -3.5 -16.5t-5.5 -16.5 q-8 0 -15 -1t-15 -1q-14 0 -23 6l2 72q0 8 -8 8zM645 -360q0 10 3 17t3 17h39v-39h19q6 4 4 15.5t0 17.5v6q6 -2 11 -1t11 1h8.5t8.5 -4v-114h-39v41h-19q-6 -4 -5 -16.5t1 -18.5v-6h-39v67q2 2 2 6t-4 5t-4 6zM752 -125h36q4 -12 9.5 -23.5t7.5 -25.5q10 8 12 23.5t6 25.5 h39q-6 -31 -17 -61.5t-22 -59.5h-30q-10 29 -21.5 59.5t-19.5 61.5zM756 -326h37l12 -24q4 4 5 11t5 13h39q-4 -18 -10 -30.5t-12.5 -24.5t-9.5 -26.5t1 -36.5h-39q0 37 -2 51t-6 21t-9 14t-11 32zM850 -365q4 10 6 19.5t6 19.5h19q23 0 45 -9t22 -38q0 -23 -22 -45h-2 q-8 0 -11.5 -3t-13.5 -1v-22h-37v75q0 4 -5 4h-7zM858 -162q4 8 6 17.5t4 19.5h80q-4 -10 -7 -18.5t-3 -18.5q-4 -2 -10 -1t-10 1q-8 0 -11 -4q4 -6 15.5 -5t17.5 1h6q-2 -8 -4 -15.5t-4 -15.5h-31q4 -6 15.5 -4t17.5 0h6v-2q0 -10 -4 -19.5t-8 -19.5h-66v80q0 4 -4 3t-6 1z M899 -365v-18l4 -2q8 0 8 10t-8 10h-4zM952 -160q0 10 4.5 17.5t8.5 17.5h16q29 2 50.5 -5t21.5 -42q0 -10 -3 -20.5t-14 -16.5q0 -10 8.5 -16t8.5 -19v-2q-6 -2 -17 -2q-12 0 -23.5 4t-11.5 21q-4 -2 -4 -6v-9q0 -8 -2 -8h-34v78q0 4 -4.5 4t-4.5 4zM952 -360q0 4 5.5 17 t7.5 17l12 -2q14 0 27.5 3t27.5 3l8 -2l-4 -20t-6 -21h-31q4 -6 15.5 -4t15.5 0h6q0 -2 1 -3t1 -3q0 -6 -3 -12t-3 -12q-4 -2 -10 -1t-12 1q-8 0 -11 -4q4 -4 16.5 -3.5t18.5 0.5l6 -2q-4 -10 -5 -18t-5 -18h-69v73q0 4 -4.5 5t-4.5 6zM999 -162v-20h5q12 0 10 12v4 q-4 0 -6 2t-7 2h-2zM1044 -356q6 4 6.5 13t6.5 17l12 -2q14 0 26.5 3t26.5 3l11 -2q-4 -23 -13 -41h-30q0 -10 13 -8t19 2q2 0 3 -1t3 -1q-2 -16 -12 -35h-26v-36h-37q-4 14 -2 27.5t2 29.5q0 10 -4.5 18.5t-4.5 12.5zM1063 -160q0 20 20.5 28.5t36.5 8.5q15 0 31 -6 q-4 -8 -5 -16.5t-7 -16.5q-6 0 -12.5 2t-14.5 2q-4 0 -6 -2q6 -10 18.5 -12t22.5 -10q6 -10 6 -23q0 -14 -6 -26q-16 -14 -43 -15q-18 0 -37 6v4q0 10 3 17.5t5 17.5q8 -2 15.5 -5t15.5 -3h6q0 10 -10 12t-19 4q-6 10 -13 15.5t-7 17.5zM1112 1085q12 -2 24.5 -1t24.5 1 q18 0 29 -4v-663h297v325h225q16 68 38 134.5t38 136.5h-301q2 10 1 21.5t-1 21.5v13t4 11h252q18 82 43.5 162t46.5 162h-283q-10 -5 -6 -19q-72 -6 -144.5 -5t-144.5 1h-55q-25 -74 -44 -148.5t-44 -148.5zM1139 -379q0 23 19.5 37t41.5 14q27 0 44.5 -16t17.5 -43 q0 -23 -21.5 -44.5t-44.5 -17.5v5q-29 0 -43 18t-14 47zM1155 -162q4 10 6 18.5t4 18.5h35v-121h-35l2 78q0 4 -4 5t-8 1zM1178 -387q0 -8 8 -21q4 0 6 -1t6 -1q20 0 25 27q-2 4 -5.5 9t-5.5 9q-4 0 -5 1.5t-5 1.5q-25 0 -24 -25zM1212 -178q0 18 14.5 32.5t30.5 16.5 q4 4 17 4q10 0 20.5 -5t20.5 -9q10 -16 18 -43q-4 -23 -17 -43.5t-40 -20.5q-29 0 -46.5 19.5t-17.5 48.5zM1249 -182q0 -27 29 -27h2q14 10 14 25q0 8 -6 18q-8 4 -16 4t-15.5 -5t-7.5 -15zM1262 -365q4 10 6 19.5t6 19.5h37q2 -12 9 -20t11 -19q4 4 3 15.5t-1 17.5v6h39 v-118h-35l-12 24t-18 21v-45h-33v75q0 4 -4 4h-8zM1333 -162q4 10 6 18.5t7 18.5h34q6 -10 12.5 -18.5t10.5 -18.5q4 2 4 11.5v15.5q0 8 4 10h33v-121h-31q-8 10 -15 23.5t-14 25.5q-6 -6 -5 -19t1 -24v-6h-34v78q0 4 -4.5 4t-8.5 2zM1380 -365q0 10 3 19.5t3 19.5l13 -2 q14 0 27.5 3t27.5 3l10 -2q-4 -10 -6 -26.5t-20 -14.5v-79h-39v75q0 6 -6.5 5t-10.5 -1h-2zM1464 -360q0 20 18.5 28t35.5 8q14 0 30 -6v-6q0 -8 -3 -11t-1 -13q-4 -4 -6 -5q-6 0 -11 2.5t-11 2.5q-8 0 -11 -5q16 -4 32.5 -13t16.5 -30q0 -14 -15.5 -27.5t-29.5 -13.5h-12v5 q-8 0 -18.5 2t-10.5 12q6 10 2 22q8 4 9 5q8 0 15 -4.5t15 -4.5l4 2q0 6 -8 9.5t-17 7.5t-16.5 10t-7.5 23zM1495 -182q0 18 14.5 34.5t30.5 18.5q6 6 16 6t20.5 -6t20.5 -10q6 -10 12.5 -22.5t6.5 -24.5q0 -27 -17.5 -42.5t-42.5 -15.5q-29 0 -45 16.5t-16 45.5zM1532 -186 q-1 -23 24 -23q23 0 23 25q0 10 -8 16t-17 6q-8 0 -6 -4q-16 -2 -16 -20zM1559 -426q0 20 20 20q8 0 11 -6t7 -10v-6q0 -10 -7 -13.5t-11 -7.5h-4q-8 0 -12 9.5t-4 13.5zM1599 -383q0 27 19.5 42t44.5 15q20 0 37 -12q-4 -10 -8 -17t-6 -18q-8 8 -25 8q-6 0 -12.5 -2 t-10.5 -10v-18q0 -6 7.5 -8.5t11.5 -2.5q8 0 14 2.5t15 2.5q2 0 2 -2q2 -8 5 -13.5t7 -13.5q-4 -10 -15.5 -11.5t-19.5 -7.5h-10v5q-27 2 -41.5 19t-14.5 42zM1620 -158q0 10 4 16.5t4 16.5h33q8 -10 14 -18.5t11 -18.5q4 2 3 11.5t-1 15.5t4 10h34v-121h-30 q-4 12 -13.5 22.5t-13.5 22.5q-6 -4 -4 -16t2 -19l-2 -6q-4 -4 -16 -4h-21v78q0 4 -4 4t-4 6zM1706 -387q0 27 15.5 43t43.5 16q23 0 42.5 -15t19.5 -40q0 -27 -19.5 -47.5t-46.5 -18.5v5q-23 0 -39 17t-16 40zM1745 -385q0 -19 16 -25q18 0 27 15v6q2 14 -6 20.5t-21 3.5 h-8q-8 -8 -8 -20zM1829 -360q0 8 4 16t4 18h39q4 -6 7 -13t11 -11q6 4 10.5 11t8.5 13h39v-118h-39v53q0 2 -2 2q-4 0 -7 -7t-6 -12h-2q-10 0 -11 9.5t-9 11.5v-57h-39v73q0 4 -4 5t-4 6z" />
<glyph unicode="2" horiz-adv-x="2023" d="M0 971q4 2 4 8q4 129 39 245.5t102 227.5q23 39 58 86t77 92t86 83t85 59l2 8h8l4 6q6 4 13 6t14 6q12 8 23 15.5t22 15.5q29 16 60.5 28.5t61.5 24.5q84 33 171.5 48.5t177.5 15.5q197 0 382 -73t326 -212q47 -47 90 -99.5t78 -111.5q10 -18 18.5 -38.5t18.5 -39.5 q6 -12 13.5 -22.5t11.5 -22.5q16 -33 25 -66.5t20 -68.5q20 -80 26 -148.5t6 -152.5q0 -6 -1 -22.5t-3 -34t-4 -34t-2 -24.5q-4 -25 -10 -49.5t-12 -48.5q-45 -168 -139.5 -306.5t-223.5 -237.5t-286.5 -154.5t-331.5 -55.5q-217 0 -404.5 83t-324 225.5t-212 333 t-69.5 405.5zM164 -326h39q2 -10 4 -21t2 -22q4 10 8 20.5t4 22.5h31q4 -10 5 -21t5 -22q8 8 7 20.5t5 22.5h76v-6q0 -10 3 -16t1 -17q10 4 11.5 16.5t5.5 22.5h28q0 -12 5.5 -22t3.5 -21q8 8 8 20.5t4 22.5h76q4 -10 4 -21t4 -22q4 10 7 20.5t3 22.5h31q4 -10 6 -21t6 -22 q6 8 6 20.5t4 22.5h35q-2 -31 -10 -60.5t-12 -57.5h-39v4q2 10 -3.5 18t-2.5 19q-8 -8 -10.5 -19.5t-2.5 -21.5h-39q-6 27 -11 52t-15 50q-16 -53 -23 -102h-37q-4 10 -6 19t-6 17q-8 -6 -7 -17t-5 -19h-37q-4 29 -11.5 53t-11.5 53q-12 -25 -15 -52.5t-11 -53.5h-39v4 q2 10 -4 18t-4 19q-6 -8 -8.5 -19.5t-2.5 -21.5h-39q-4 29 -13 58t-13 60zM195 1085q12 -2 24 -1t25 1h13t13 -4v-663h297v256v44t4 44q29 -2 57.5 -1t57.5 1h33.5t36.5 -4v-336q29 -4 57.5 -4h56.5q45 0 90.5 1t92.5 -1v964q-47 -2 -92.5 0t-90.5 2q-59 0 -114 -6v-311 h-189q0 47 1 96t1 97q0 61 -6 122h-280q-4 0 -5.5 -4t-3.5 -6q-18 -72 -40.5 -143.5t-38.5 -143.5zM367 -162q4 10 5 18.5t5 18.5h76v-2q2 -10 -3.5 -17.5t-3.5 -17.5q-6 -2 -12 -1t-12 1q-8 0 -10 -4q4 -6 15 -5t17 1h7q-2 -10 -6.5 -16.5t-2.5 -18.5h-30v-41h-21 q-14 0 -18 4l2 74q0 2 -8 6zM457 -162q4 10 6 18.5t6 18.5h35q0 -12 -1 -24.5t-1 -24.5q0 -20 8 -35h6q10 0 10 12.5v20.5v51h21q12 0 16 -4l2 -37q0 -27 -7 -53.5t-42 -26.5q-23 0 -43 19q-4 16 -4 29.5v29.5q0 4 -4 5t-8 1zM567 -162q4 8 6 17.5t7 19.5h20q12 0 16 -4 q0 -18 -1 -37.5t1 -38.5q2 -4 9.5 -4h11.5h4q-4 -10 -6 -18.5t-6 -18.5h-49v78q0 4 -4.5 4t-8.5 2zM604 -426q0 18 21 18q18 0 18 -18q1 -23 -22 -23q-16 8 -17 23zM641 -162q4 10 5 18.5t5 18.5h35q0 -20 -1 -39.5t1 -40.5q0 -4 7 -4h12h4v-4q2 -10 -3.5 -16.5t-5.5 -16.5 q-8 0 -15 -1t-15 -1q-14 0 -23 6l2 72q0 8 -8 8zM645 -360q0 10 3 17t3 17h39v-39h19q6 4 4 15.5t0 17.5v6q6 -2 11 -1t11 1h8.5t8.5 -4v-114h-39v41h-19q-6 -4 -5 -16.5t1 -18.5v-6h-39v67q2 2 2 6t-4 5t-4 6zM752 -125h36q4 -12 9.5 -23.5t7.5 -25.5q10 8 12 23.5t6 25.5 h39q-6 -31 -17 -61.5t-22 -59.5h-30q-10 29 -21.5 59.5t-19.5 61.5zM756 -326h37l12 -24q4 4 5 11t5 13h39q-4 -18 -10 -30.5t-12.5 -24.5t-9.5 -26.5t1 -36.5h-39q0 37 -2 51t-6 21t-9 14t-11 32zM850 -365q4 10 6 19.5t6 19.5h19q23 0 45 -9t22 -38q0 -23 -22 -45h-2 q-8 0 -11.5 -3t-13.5 -1v-22h-37v75q0 4 -5 4h-7zM858 -162q4 8 6 17.5t4 19.5h80q-4 -10 -7 -18.5t-3 -18.5q-4 -2 -10 -1t-10 1q-8 0 -11 -4q4 -6 15.5 -5t17.5 1h6q-2 -8 -4 -15.5t-4 -15.5h-31q4 -6 15.5 -4t17.5 0h6v-2q0 -10 -4 -19.5t-8 -19.5h-66v80q0 4 -4 3t-6 1z M899 -365v-18l4 -2q8 0 8 10t-8 10h-4zM952 -160q0 10 4.5 17.5t8.5 17.5h16q29 2 50.5 -5t21.5 -42q0 -10 -3 -20.5t-14 -16.5q0 -10 8.5 -16t8.5 -19v-2q-6 -2 -17 -2q-12 0 -23.5 4t-11.5 21q-4 -2 -4 -6v-9q0 -8 -2 -8h-34v78q0 4 -4.5 4t-4.5 4zM952 -360q0 4 5.5 17 t7.5 17l12 -2q14 0 27.5 3t27.5 3l8 -2l-4 -20t-6 -21h-31q4 -6 15.5 -4t15.5 0h6q0 -2 1 -3t1 -3q0 -6 -3 -12t-3 -12q-4 -2 -10 -1t-12 1q-8 0 -11 -4q4 -4 16.5 -3.5t18.5 0.5l6 -2q-4 -10 -5 -18t-5 -18h-69v73q0 4 -4.5 5t-4.5 6zM999 -162v-20h5q12 0 10 12v4 q-4 0 -6 2t-7 2h-2zM1044 -356q6 4 6.5 13t6.5 17l12 -2q14 0 26.5 3t26.5 3l11 -2q-4 -23 -13 -41h-30q0 -10 13 -8t19 2q2 0 3 -1t3 -1q-2 -16 -12 -35h-26v-36h-37q-4 14 -2 27.5t2 29.5q0 10 -4.5 18.5t-4.5 12.5zM1063 -160q0 20 20.5 28.5t36.5 8.5q15 0 31 -6 q-4 -8 -5 -16.5t-7 -16.5q-6 0 -12.5 2t-14.5 2q-4 0 -6 -2q6 -10 18.5 -12t22.5 -10q6 -10 6 -23q0 -14 -6 -26q-16 -14 -43 -15q-18 0 -37 6v4q0 10 3 17.5t5 17.5q8 -2 15.5 -5t15.5 -3h6q0 10 -10 12t-19 4q-6 10 -13 15.5t-7 17.5zM1112 1085q12 -2 24.5 -1t24.5 1 q18 0 29 -4v-663h297v325h225q16 68 38 134.5t38 136.5h-301q2 10 1 21.5t-1 21.5v13t4 11h252q18 82 43.5 162t46.5 162h-283q-10 -5 -6 -19q-72 -6 -144.5 -5t-144.5 1h-55q-25 -74 -44 -148.5t-44 -148.5zM1139 -379q0 23 19.5 37t41.5 14q27 0 44.5 -16t17.5 -43 q0 -23 -21.5 -44.5t-44.5 -17.5v5q-29 0 -43 18t-14 47zM1155 -162q4 10 6 18.5t4 18.5h35v-121h-35l2 78q0 4 -4 5t-8 1zM1178 -387q0 -8 8 -21q4 0 6 -1t6 -1q20 0 25 27q-2 4 -5.5 9t-5.5 9q-4 0 -5 1.5t-5 1.5q-25 0 -24 -25zM1212 -178q0 18 14.5 32.5t30.5 16.5 q4 4 17 4q10 0 20.5 -5t20.5 -9q10 -16 18 -43q-4 -23 -17 -43.5t-40 -20.5q-29 0 -46.5 19.5t-17.5 48.5zM1249 -182q0 -27 29 -27h2q14 10 14 25q0 8 -6 18q-8 4 -16 4t-15.5 -5t-7.5 -15zM1262 -365q4 10 6 19.5t6 19.5h37q2 -12 9 -20t11 -19q4 4 3 15.5t-1 17.5v6h39 v-118h-35l-12 24t-18 21v-45h-33v75q0 4 -4 4h-8zM1333 -162q4 10 6 18.5t7 18.5h34q6 -10 12.5 -18.5t10.5 -18.5q4 2 4 11.5v15.5q0 8 4 10h33v-121h-31q-8 10 -15 23.5t-14 25.5q-6 -6 -5 -19t1 -24v-6h-34v78q0 4 -4.5 4t-8.5 2zM1380 -365q0 10 3 19.5t3 19.5l13 -2 q14 0 27.5 3t27.5 3l10 -2q-4 -10 -6 -26.5t-20 -14.5v-79h-39v75q0 6 -6.5 5t-10.5 -1h-2zM1464 -360q0 20 18.5 28t35.5 8q14 0 30 -6v-6q0 -8 -3 -11t-1 -13q-4 -4 -6 -5q-6 0 -11 2.5t-11 2.5q-8 0 -11 -5q16 -4 32.5 -13t16.5 -30q0 -14 -15.5 -27.5t-29.5 -13.5h-12v5 q-8 0 -18.5 2t-10.5 12q6 10 2 22q8 4 9 5q8 0 15 -4.5t15 -4.5l4 2q0 6 -8 9.5t-17 7.5t-16.5 10t-7.5 23zM1495 -182q0 18 14.5 34.5t30.5 18.5q6 6 16 6t20.5 -6t20.5 -10q6 -10 12.5 -22.5t6.5 -24.5q0 -27 -17.5 -42.5t-42.5 -15.5q-29 0 -45 16.5t-16 45.5zM1532 -186 q-1 -23 24 -23q23 0 23 25q0 10 -8 16t-17 6q-8 0 -6 -4q-16 -2 -16 -20zM1559 -426q0 20 20 20q8 0 11 -6t7 -10v-6q0 -10 -7 -13.5t-11 -7.5h-4q-8 0 -12 9.5t-4 13.5zM1599 -383q0 27 19.5 42t44.5 15q20 0 37 -12q-4 -10 -8 -17t-6 -18q-8 8 -25 8q-6 0 -12.5 -2 t-10.5 -10v-18q0 -6 7.5 -8.5t11.5 -2.5q8 0 14 2.5t15 2.5q2 0 2 -2q2 -8 5 -13.5t7 -13.5q-4 -10 -15.5 -11.5t-19.5 -7.5h-10v5q-27 2 -41.5 19t-14.5 42zM1620 -158q0 10 4 16.5t4 16.5h33q8 -10 14 -18.5t11 -18.5q4 2 3 11.5t-1 15.5t4 10h34v-121h-30 q-4 12 -13.5 22.5t-13.5 22.5q-6 -4 -4 -16t2 -19l-2 -6q-4 -4 -16 -4h-21v78q0 4 -4 4t-4 6zM1706 -387q0 27 15.5 43t43.5 16q23 0 42.5 -15t19.5 -40q0 -27 -19.5 -47.5t-46.5 -18.5v5q-23 0 -39 17t-16 40zM1745 -385q0 -19 16 -25q18 0 27 15v6q2 14 -6 20.5t-21 3.5 h-8q-8 -8 -8 -20zM1829 -360q0 8 4 16t4 18h39q4 -6 7 -13t11 -11q6 4 10.5 11t8.5 13h39v-118h-39v53q0 2 -2 2q-4 0 -7 -7t-6 -12h-2q-10 0 -11 9.5t-9 11.5v-57h-39v73q0 4 -4 5t-4 6z" />
<glyph unicode="3" horiz-adv-x="2023" d="M0 971q4 2 4 8q4 129 39 245.5t102 227.5q23 39 58 86t77 92t86 83t85 59l2 8h8l4 6q6 4 13 6t14 6q12 8 23 15.5t22 15.5q29 16 60.5 28.5t61.5 24.5q84 33 171.5 48.5t177.5 15.5q197 0 382 -73t326 -212q47 -47 90 -99.5t78 -111.5q10 -18 18.5 -38.5t18.5 -39.5 q6 -12 13.5 -22.5t11.5 -22.5q16 -33 25 -66.5t20 -68.5q20 -80 26 -148.5t6 -152.5q0 -6 -1 -22.5t-3 -34t-4 -34t-2 -24.5q-4 -25 -10 -49.5t-12 -48.5q-45 -168 -139.5 -306.5t-223.5 -237.5t-286.5 -154.5t-331.5 -55.5q-217 0 -404.5 83t-324 225.5t-212 333 t-69.5 405.5zM164 -326h39q2 -10 4 -21t2 -22q4 10 8 20.5t4 22.5h31q4 -10 5 -21t5 -22q8 8 7 20.5t5 22.5h76v-6q0 -10 3 -16t1 -17q10 4 11.5 16.5t5.5 22.5h28q0 -12 5.5 -22t3.5 -21q8 8 8 20.5t4 22.5h76q4 -10 4 -21t4 -22q4 10 7 20.5t3 22.5h31q4 -10 6 -21t6 -22 q6 8 6 20.5t4 22.5h35q-2 -31 -10 -60.5t-12 -57.5h-39v4q2 10 -3.5 18t-2.5 19q-8 -8 -10.5 -19.5t-2.5 -21.5h-39q-6 27 -11 52t-15 50q-16 -53 -23 -102h-37q-4 10 -6 19t-6 17q-8 -6 -7 -17t-5 -19h-37q-4 29 -11.5 53t-11.5 53q-12 -25 -15 -52.5t-11 -53.5h-39v4 q2 10 -4 18t-4 19q-6 -8 -8.5 -19.5t-2.5 -21.5h-39q-4 29 -13 58t-13 60zM195 1085q12 -2 24 -1t25 1h13t13 -4v-663h297v256v44t4 44q29 -2 57.5 -1t57.5 1h33.5t36.5 -4v-336q29 -4 57.5 -4h56.5q45 0 90.5 1t92.5 -1v964q-47 -2 -92.5 0t-90.5 2q-59 0 -114 -6v-311 h-189q0 47 1 96t1 97q0 61 -6 122h-280q-4 0 -5.5 -4t-3.5 -6q-18 -72 -40.5 -143.5t-38.5 -143.5zM367 -162q4 10 5 18.5t5 18.5h76v-2q2 -10 -3.5 -17.5t-3.5 -17.5q-6 -2 -12 -1t-12 1q-8 0 -10 -4q4 -6 15 -5t17 1h7q-2 -10 -6.5 -16.5t-2.5 -18.5h-30v-41h-21 q-14 0 -18 4l2 74q0 2 -8 6zM457 -162q4 10 6 18.5t6 18.5h35q0 -12 -1 -24.5t-1 -24.5q0 -20 8 -35h6q10 0 10 12.5v20.5v51h21q12 0 16 -4l2 -37q0 -27 -7 -53.5t-42 -26.5q-23 0 -43 19q-4 16 -4 29.5v29.5q0 4 -4 5t-8 1zM567 -162q4 8 6 17.5t7 19.5h20q12 0 16 -4 q0 -18 -1 -37.5t1 -38.5q2 -4 9.5 -4h11.5h4q-4 -10 -6 -18.5t-6 -18.5h-49v78q0 4 -4.5 4t-8.5 2zM604 -426q0 18 21 18q18 0 18 -18q1 -23 -22 -23q-16 8 -17 23zM641 -162q4 10 5 18.5t5 18.5h35q0 -20 -1 -39.5t1 -40.5q0 -4 7 -4h12h4v-4q2 -10 -3.5 -16.5t-5.5 -16.5 q-8 0 -15 -1t-15 -1q-14 0 -23 6l2 72q0 8 -8 8zM645 -360q0 10 3 17t3 17h39v-39h19q6 4 4 15.5t0 17.5v6q6 -2 11 -1t11 1h8.5t8.5 -4v-114h-39v41h-19q-6 -4 -5 -16.5t1 -18.5v-6h-39v67q2 2 2 6t-4 5t-4 6zM752 -125h36q4 -12 9.5 -23.5t7.5 -25.5q10 8 12 23.5t6 25.5 h39q-6 -31 -17 -61.5t-22 -59.5h-30q-10 29 -21.5 59.5t-19.5 61.5zM756 -326h37l12 -24q4 4 5 11t5 13h39q-4 -18 -10 -30.5t-12.5 -24.5t-9.5 -26.5t1 -36.5h-39q0 37 -2 51t-6 21t-9 14t-11 32zM850 -365q4 10 6 19.5t6 19.5h19q23 0 45 -9t22 -38q0 -23 -22 -45h-2 q-8 0 -11.5 -3t-13.5 -1v-22h-37v75q0 4 -5 4h-7zM858 -162q4 8 6 17.5t4 19.5h80q-4 -10 -7 -18.5t-3 -18.5q-4 -2 -10 -1t-10 1q-8 0 -11 -4q4 -6 15.5 -5t17.5 1h6q-2 -8 -4 -15.5t-4 -15.5h-31q4 -6 15.5 -4t17.5 0h6v-2q0 -10 -4 -19.5t-8 -19.5h-66v80q0 4 -4 3t-6 1z M899 -365v-18l4 -2q8 0 8 10t-8 10h-4zM952 -160q0 10 4.5 17.5t8.5 17.5h16q29 2 50.5 -5t21.5 -42q0 -10 -3 -20.5t-14 -16.5q0 -10 8.5 -16t8.5 -19v-2q-6 -2 -17 -2q-12 0 -23.5 4t-11.5 21q-4 -2 -4 -6v-9q0 -8 -2 -8h-34v78q0 4 -4.5 4t-4.5 4zM952 -360q0 4 5.5 17 t7.5 17l12 -2q14 0 27.5 3t27.5 3l8 -2l-4 -20t-6 -21h-31q4 -6 15.5 -4t15.5 0h6q0 -2 1 -3t1 -3q0 -6 -3 -12t-3 -12q-4 -2 -10 -1t-12 1q-8 0 -11 -4q4 -4 16.5 -3.5t18.5 0.5l6 -2q-4 -10 -5 -18t-5 -18h-69v73q0 4 -4.5 5t-4.5 6zM999 -162v-20h5q12 0 10 12v4 q-4 0 -6 2t-7 2h-2zM1044 -356q6 4 6.5 13t6.5 17l12 -2q14 0 26.5 3t26.5 3l11 -2q-4 -23 -13 -41h-30q0 -10 13 -8t19 2q2 0 3 -1t3 -1q-2 -16 -12 -35h-26v-36h-37q-4 14 -2 27.5t2 29.5q0 10 -4.5 18.5t-4.5 12.5zM1063 -160q0 20 20.5 28.5t36.5 8.5q15 0 31 -6 q-4 -8 -5 -16.5t-7 -16.5q-6 0 -12.5 2t-14.5 2q-4 0 -6 -2q6 -10 18.5 -12t22.5 -10q6 -10 6 -23q0 -14 -6 -26q-16 -14 -43 -15q-18 0 -37 6v4q0 10 3 17.5t5 17.5q8 -2 15.5 -5t15.5 -3h6q0 10 -10 12t-19 4q-6 10 -13 15.5t-7 17.5zM1112 1085q12 -2 24.5 -1t24.5 1 q18 0 29 -4v-663h297v325h225q16 68 38 134.5t38 136.5h-301q2 10 1 21.5t-1 21.5v13t4 11h252q18 82 43.5 162t46.5 162h-283q-10 -5 -6 -19q-72 -6 -144.5 -5t-144.5 1h-55q-25 -74 -44 -148.5t-44 -148.5zM1139 -379q0 23 19.5 37t41.5 14q27 0 44.5 -16t17.5 -43 q0 -23 -21.5 -44.5t-44.5 -17.5v5q-29 0 -43 18t-14 47zM1155 -162q4 10 6 18.5t4 18.5h35v-121h-35l2 78q0 4 -4 5t-8 1zM1178 -387q0 -8 8 -21q4 0 6 -1t6 -1q20 0 25 27q-2 4 -5.5 9t-5.5 9q-4 0 -5 1.5t-5 1.5q-25 0 -24 -25zM1212 -178q0 18 14.5 32.5t30.5 16.5 q4 4 17 4q10 0 20.5 -5t20.5 -9q10 -16 18 -43q-4 -23 -17 -43.5t-40 -20.5q-29 0 -46.5 19.5t-17.5 48.5zM1249 -182q0 -27 29 -27h2q14 10 14 25q0 8 -6 18q-8 4 -16 4t-15.5 -5t-7.5 -15zM1262 -365q4 10 6 19.5t6 19.5h37q2 -12 9 -20t11 -19q4 4 3 15.5t-1 17.5v6h39 v-118h-35l-12 24t-18 21v-45h-33v75q0 4 -4 4h-8zM1333 -162q4 10 6 18.5t7 18.5h34q6 -10 12.5 -18.5t10.5 -18.5q4 2 4 11.5v15.5q0 8 4 10h33v-121h-31q-8 10 -15 23.5t-14 25.5q-6 -6 -5 -19t1 -24v-6h-34v78q0 4 -4.5 4t-8.5 2zM1380 -365q0 10 3 19.5t3 19.5l13 -2 q14 0 27.5 3t27.5 3l10 -2q-4 -10 -6 -26.5t-20 -14.5v-79h-39v75q0 6 -6.5 5t-10.5 -1h-2zM1464 -360q0 20 18.5 28t35.5 8q14 0 30 -6v-6q0 -8 -3 -11t-1 -13q-4 -4 -6 -5q-6 0 -11 2.5t-11 2.5q-8 0 -11 -5q16 -4 32.5 -13t16.5 -30q0 -14 -15.5 -27.5t-29.5 -13.5h-12v5 q-8 0 -18.5 2t-10.5 12q6 10 2 22q8 4 9 5q8 0 15 -4.5t15 -4.5l4 2q0 6 -8 9.5t-17 7.5t-16.5 10t-7.5 23zM1495 -182q0 18 14.5 34.5t30.5 18.5q6 6 16 6t20.5 -6t20.5 -10q6 -10 12.5 -22.5t6.5 -24.5q0 -27 -17.5 -42.5t-42.5 -15.5q-29 0 -45 16.5t-16 45.5zM1532 -186 q-1 -23 24 -23q23 0 23 25q0 10 -8 16t-17 6q-8 0 -6 -4q-16 -2 -16 -20zM1559 -426q0 20 20 20q8 0 11 -6t7 -10v-6q0 -10 -7 -13.5t-11 -7.5h-4q-8 0 -12 9.5t-4 13.5zM1599 -383q0 27 19.5 42t44.5 15q20 0 37 -12q-4 -10 -8 -17t-6 -18q-8 8 -25 8q-6 0 -12.5 -2 t-10.5 -10v-18q0 -6 7.5 -8.5t11.5 -2.5q8 0 14 2.5t15 2.5q2 0 2 -2q2 -8 5 -13.5t7 -13.5q-4 -10 -15.5 -11.5t-19.5 -7.5h-10v5q-27 2 -41.5 19t-14.5 42zM1620 -158q0 10 4 16.5t4 16.5h33q8 -10 14 -18.5t11 -18.5q4 2 3 11.5t-1 15.5t4 10h34v-121h-30 q-4 12 -13.5 22.5t-13.5 22.5q-6 -4 -4 -16t2 -19l-2 -6q-4 -4 -16 -4h-21v78q0 4 -4 4t-4 6zM1706 -387q0 27 15.5 43t43.5 16q23 0 42.5 -15t19.5 -40q0 -27 -19.5 -47.5t-46.5 -18.5v5q-23 0 -39 17t-16 40zM1745 -385q0 -19 16 -25q18 0 27 15v6q2 14 -6 20.5t-21 3.5 h-8q-8 -8 -8 -20zM1829 -360q0 8 4 16t4 18h39q4 -6 7 -13t11 -11q6 4 10.5 11t8.5 13h39v-118h-39v53q0 2 -2 2q-4 0 -7 -7t-6 -12h-2q-10 0 -11 9.5t-9 11.5v-57h-39v73q0 4 -4 5t-4 6z" />
<glyph unicode="4" horiz-adv-x="2023" d="M0 971q4 2 4 8q4 129 39 245.5t102 227.5q23 39 58 86t77 92t86 83t85 59l2 8h8l4 6q6 4 13 6t14 6q12 8 23 15.5t22 15.5q29 16 60.5 28.5t61.5 24.5q84 33 171.5 48.5t177.5 15.5q197 0 382 -73t326 -212q47 -47 90 -99.5t78 -111.5q10 -18 18.5 -38.5t18.5 -39.5 q6 -12 13.5 -22.5t11.5 -22.5q16 -33 25 -66.5t20 -68.5q20 -80 26 -148.5t6 -152.5q0 -6 -1 -22.5t-3 -34t-4 -34t-2 -24.5q-4 -25 -10 -49.5t-12 -48.5q-45 -168 -139.5 -306.5t-223.5 -237.5t-286.5 -154.5t-331.5 -55.5q-217 0 -404.5 83t-324 225.5t-212 333 t-69.5 405.5zM164 -326h39q2 -10 4 -21t2 -22q4 10 8 20.5t4 22.5h31q4 -10 5 -21t5 -22q8 8 7 20.5t5 22.5h76v-6q0 -10 3 -16t1 -17q10 4 11.5 16.5t5.5 22.5h28q0 -12 5.5 -22t3.5 -21q8 8 8 20.5t4 22.5h76q4 -10 4 -21t4 -22q4 10 7 20.5t3 22.5h31q4 -10 6 -21t6 -22 q6 8 6 20.5t4 22.5h35q-2 -31 -10 -60.5t-12 -57.5h-39v4q2 10 -3.5 18t-2.5 19q-8 -8 -10.5 -19.5t-2.5 -21.5h-39q-6 27 -11 52t-15 50q-16 -53 -23 -102h-37q-4 10 -6 19t-6 17q-8 -6 -7 -17t-5 -19h-37q-4 29 -11.5 53t-11.5 53q-12 -25 -15 -52.5t-11 -53.5h-39v4 q2 10 -4 18t-4 19q-6 -8 -8.5 -19.5t-2.5 -21.5h-39q-4 29 -13 58t-13 60zM195 1085q12 -2 24 -1t25 1h13t13 -4v-663h297v256v44t4 44q29 -2 57.5 -1t57.5 1h33.5t36.5 -4v-336q29 -4 57.5 -4h56.5q45 0 90.5 1t92.5 -1v964q-47 -2 -92.5 0t-90.5 2q-59 0 -114 -6v-311 h-189q0 47 1 96t1 97q0 61 -6 122h-280q-4 0 -5.5 -4t-3.5 -6q-18 -72 -40.5 -143.5t-38.5 -143.5zM367 -162q4 10 5 18.5t5 18.5h76v-2q2 -10 -3.5 -17.5t-3.5 -17.5q-6 -2 -12 -1t-12 1q-8 0 -10 -4q4 -6 15 -5t17 1h7q-2 -10 -6.5 -16.5t-2.5 -18.5h-30v-41h-21 q-14 0 -18 4l2 74q0 2 -8 6zM457 -162q4 10 6 18.5t6 18.5h35q0 -12 -1 -24.5t-1 -24.5q0 -20 8 -35h6q10 0 10 12.5v20.5v51h21q12 0 16 -4l2 -37q0 -27 -7 -53.5t-42 -26.5q-23 0 -43 19q-4 16 -4 29.5v29.5q0 4 -4 5t-8 1zM567 -162q4 8 6 17.5t7 19.5h20q12 0 16 -4 q0 -18 -1 -37.5t1 -38.5q2 -4 9.5 -4h11.5h4q-4 -10 -6 -18.5t-6 -18.5h-49v78q0 4 -4.5 4t-8.5 2zM604 -426q0 18 21 18q18 0 18 -18q1 -23 -22 -23q-16 8 -17 23zM641 -162q4 10 5 18.5t5 18.5h35q0 -20 -1 -39.5t1 -40.5q0 -4 7 -4h12h4v-4q2 -10 -3.5 -16.5t-5.5 -16.5 q-8 0 -15 -1t-15 -1q-14 0 -23 6l2 72q0 8 -8 8zM645 -360q0 10 3 17t3 17h39v-39h19q6 4 4 15.5t0 17.5v6q6 -2 11 -1t11 1h8.5t8.5 -4v-114h-39v41h-19q-6 -4 -5 -16.5t1 -18.5v-6h-39v67q2 2 2 6t-4 5t-4 6zM752 -125h36q4 -12 9.5 -23.5t7.5 -25.5q10 8 12 23.5t6 25.5 h39q-6 -31 -17 -61.5t-22 -59.5h-30q-10 29 -21.5 59.5t-19.5 61.5zM756 -326h37l12 -24q4 4 5 11t5 13h39q-4 -18 -10 -30.5t-12.5 -24.5t-9.5 -26.5t1 -36.5h-39q0 37 -2 51t-6 21t-9 14t-11 32zM850 -365q4 10 6 19.5t6 19.5h19q23 0 45 -9t22 -38q0 -23 -22 -45h-2 q-8 0 -11.5 -3t-13.5 -1v-22h-37v75q0 4 -5 4h-7zM858 -162q4 8 6 17.5t4 19.5h80q-4 -10 -7 -18.5t-3 -18.5q-4 -2 -10 -1t-10 1q-8 0 -11 -4q4 -6 15.5 -5t17.5 1h6q-2 -8 -4 -15.5t-4 -15.5h-31q4 -6 15.5 -4t17.5 0h6v-2q0 -10 -4 -19.5t-8 -19.5h-66v80q0 4 -4 3t-6 1z M899 -365v-18l4 -2q8 0 8 10t-8 10h-4zM952 -160q0 10 4.5 17.5t8.5 17.5h16q29 2 50.5 -5t21.5 -42q0 -10 -3 -20.5t-14 -16.5q0 -10 8.5 -16t8.5 -19v-2q-6 -2 -17 -2q-12 0 -23.5 4t-11.5 21q-4 -2 -4 -6v-9q0 -8 -2 -8h-34v78q0 4 -4.5 4t-4.5 4zM952 -360q0 4 5.5 17 t7.5 17l12 -2q14 0 27.5 3t27.5 3l8 -2l-4 -20t-6 -21h-31q4 -6 15.5 -4t15.5 0h6q0 -2 1 -3t1 -3q0 -6 -3 -12t-3 -12q-4 -2 -10 -1t-12 1q-8 0 -11 -4q4 -4 16.5 -3.5t18.5 0.5l6 -2q-4 -10 -5 -18t-5 -18h-69v73q0 4 -4.5 5t-4.5 6zM999 -162v-20h5q12 0 10 12v4 q-4 0 -6 2t-7 2h-2zM1044 -356q6 4 6.5 13t6.5 17l12 -2q14 0 26.5 3t26.5 3l11 -2q-4 -23 -13 -41h-30q0 -10 13 -8t19 2q2 0 3 -1t3 -1q-2 -16 -12 -35h-26v-36h-37q-4 14 -2 27.5t2 29.5q0 10 -4.5 18.5t-4.5 12.5zM1063 -160q0 20 20.5 28.5t36.5 8.5q15 0 31 -6 q-4 -8 -5 -16.5t-7 -16.5q-6 0 -12.5 2t-14.5 2q-4 0 -6 -2q6 -10 18.5 -12t22.5 -10q6 -10 6 -23q0 -14 -6 -26q-16 -14 -43 -15q-18 0 -37 6v4q0 10 3 17.5t5 17.5q8 -2 15.5 -5t15.5 -3h6q0 10 -10 12t-19 4q-6 10 -13 15.5t-7 17.5zM1112 1085q12 -2 24.5 -1t24.5 1 q18 0 29 -4v-663h297v325h225q16 68 38 134.5t38 136.5h-301q2 10 1 21.5t-1 21.5v13t4 11h252q18 82 43.5 162t46.5 162h-283q-10 -5 -6 -19q-72 -6 -144.5 -5t-144.5 1h-55q-25 -74 -44 -148.5t-44 -148.5zM1139 -379q0 23 19.5 37t41.5 14q27 0 44.5 -16t17.5 -43 q0 -23 -21.5 -44.5t-44.5 -17.5v5q-29 0 -43 18t-14 47zM1155 -162q4 10 6 18.5t4 18.5h35v-121h-35l2 78q0 4 -4 5t-8 1zM1178 -387q0 -8 8 -21q4 0 6 -1t6 -1q20 0 25 27q-2 4 -5.5 9t-5.5 9q-4 0 -5 1.5t-5 1.5q-25 0 -24 -25zM1212 -178q0 18 14.5 32.5t30.5 16.5 q4 4 17 4q10 0 20.5 -5t20.5 -9q10 -16 18 -43q-4 -23 -17 -43.5t-40 -20.5q-29 0 -46.5 19.5t-17.5 48.5zM1249 -182q0 -27 29 -27h2q14 10 14 25q0 8 -6 18q-8 4 -16 4t-15.5 -5t-7.5 -15zM1262 -365q4 10 6 19.5t6 19.5h37q2 -12 9 -20t11 -19q4 4 3 15.5t-1 17.5v6h39 v-118h-35l-12 24t-18 21v-45h-33v75q0 4 -4 4h-8zM1333 -162q4 10 6 18.5t7 18.5h34q6 -10 12.5 -18.5t10.5 -18.5q4 2 4 11.5v15.5q0 8 4 10h33v-121h-31q-8 10 -15 23.5t-14 25.5q-6 -6 -5 -19t1 -24v-6h-34v78q0 4 -4.5 4t-8.5 2zM1380 -365q0 10 3 19.5t3 19.5l13 -2 q14 0 27.5 3t27.5 3l10 -2q-4 -10 -6 -26.5t-20 -14.5v-79h-39v75q0 6 -6.5 5t-10.5 -1h-2zM1464 -360q0 20 18.5 28t35.5 8q14 0 30 -6v-6q0 -8 -3 -11t-1 -13q-4 -4 -6 -5q-6 0 -11 2.5t-11 2.5q-8 0 -11 -5q16 -4 32.5 -13t16.5 -30q0 -14 -15.5 -27.5t-29.5 -13.5h-12v5 q-8 0 -18.5 2t-10.5 12q6 10 2 22q8 4 9 5q8 0 15 -4.5t15 -4.5l4 2q0 6 -8 9.5t-17 7.5t-16.5 10t-7.5 23zM1495 -182q0 18 14.5 34.5t30.5 18.5q6 6 16 6t20.5 -6t20.5 -10q6 -10 12.5 -22.5t6.5 -24.5q0 -27 -17.5 -42.5t-42.5 -15.5q-29 0 -45 16.5t-16 45.5zM1532 -186 q-1 -23 24 -23q23 0 23 25q0 10 -8 16t-17 6q-8 0 -6 -4q-16 -2 -16 -20zM1559 -426q0 20 20 20q8 0 11 -6t7 -10v-6q0 -10 -7 -13.5t-11 -7.5h-4q-8 0 -12 9.5t-4 13.5zM1599 -383q0 27 19.5 42t44.5 15q20 0 37 -12q-4 -10 -8 -17t-6 -18q-8 8 -25 8q-6 0 -12.5 -2 t-10.5 -10v-18q0 -6 7.5 -8.5t11.5 -2.5q8 0 14 2.5t15 2.5q2 0 2 -2q2 -8 5 -13.5t7 -13.5q-4 -10 -15.5 -11.5t-19.5 -7.5h-10v5q-27 2 -41.5 19t-14.5 42zM1620 -158q0 10 4 16.5t4 16.5h33q8 -10 14 -18.5t11 -18.5q4 2 3 11.5t-1 15.5t4 10h34v-121h-30 q-4 12 -13.5 22.5t-13.5 22.5q-6 -4 -4 -16t2 -19l-2 -6q-4 -4 -16 -4h-21v78q0 4 -4 4t-4 6zM1706 -387q0 27 15.5 43t43.5 16q23 0 42.5 -15t19.5 -40q0 -27 -19.5 -47.5t-46.5 -18.5v5q-23 0 -39 17t-16 40zM1745 -385q0 -19 16 -25q18 0 27 15v6q2 14 -6 20.5t-21 3.5 h-8q-8 -8 -8 -20zM1829 -360q0 8 4 16t4 18h39q4 -6 7 -13t11 -11q6 4 10.5 11t8.5 13h39v-118h-39v53q0 2 -2 2q-4 0 -7 -7t-6 -12h-2q-10 0 -11 9.5t-9 11.5v-57h-39v73q0 4 -4 5t-4 6z" />
<glyph unicode="5" horiz-adv-x="2023" d="M0 971q4 2 4 8q4 129 39 245.5t102 227.5q23 39 58 86t77 92t86 83t85 59l2 8h8l4 6q6 4 13 6t14 6q12 8 23 15.5t22 15.5q29 16 60.5 28.5t61.5 24.5q84 33 171.5 48.5t177.5 15.5q197 0 382 -73t326 -212q47 -47 90 -99.5t78 -111.5q10 -18 18.5 -38.5t18.5 -39.5 q6 -12 13.5 -22.5t11.5 -22.5q16 -33 25 -66.5t20 -68.5q20 -80 26 -148.5t6 -152.5q0 -6 -1 -22.5t-3 -34t-4 -34t-2 -24.5q-4 -25 -10 -49.5t-12 -48.5q-45 -168 -139.5 -306.5t-223.5 -237.5t-286.5 -154.5t-331.5 -55.5q-217 0 -404.5 83t-324 225.5t-212 333 t-69.5 405.5zM164 -326h39q2 -10 4 -21t2 -22q4 10 8 20.5t4 22.5h31q4 -10 5 -21t5 -22q8 8 7 20.5t5 22.5h76v-6q0 -10 3 -16t1 -17q10 4 11.5 16.5t5.5 22.5h28q0 -12 5.5 -22t3.5 -21q8 8 8 20.5t4 22.5h76q4 -10 4 -21t4 -22q4 10 7 20.5t3 22.5h31q4 -10 6 -21t6 -22 q6 8 6 20.5t4 22.5h35q-2 -31 -10 -60.5t-12 -57.5h-39v4q2 10 -3.5 18t-2.5 19q-8 -8 -10.5 -19.5t-2.5 -21.5h-39q-6 27 -11 52t-15 50q-16 -53 -23 -102h-37q-4 10 -6 19t-6 17q-8 -6 -7 -17t-5 -19h-37q-4 29 -11.5 53t-11.5 53q-12 -25 -15 -52.5t-11 -53.5h-39v4 q2 10 -4 18t-4 19q-6 -8 -8.5 -19.5t-2.5 -21.5h-39q-4 29 -13 58t-13 60zM195 1085q12 -2 24 -1t25 1h13t13 -4v-663h297v256v44t4 44q29 -2 57.5 -1t57.5 1h33.5t36.5 -4v-336q29 -4 57.5 -4h56.5q45 0 90.5 1t92.5 -1v964q-47 -2 -92.5 0t-90.5 2q-59 0 -114 -6v-311 h-189q0 47 1 96t1 97q0 61 -6 122h-280q-4 0 -5.5 -4t-3.5 -6q-18 -72 -40.5 -143.5t-38.5 -143.5zM367 -162q4 10 5 18.5t5 18.5h76v-2q2 -10 -3.5 -17.5t-3.5 -17.5q-6 -2 -12 -1t-12 1q-8 0 -10 -4q4 -6 15 -5t17 1h7q-2 -10 -6.5 -16.5t-2.5 -18.5h-30v-41h-21 q-14 0 -18 4l2 74q0 2 -8 6zM457 -162q4 10 6 18.5t6 18.5h35q0 -12 -1 -24.5t-1 -24.5q0 -20 8 -35h6q10 0 10 12.5v20.5v51h21q12 0 16 -4l2 -37q0 -27 -7 -53.5t-42 -26.5q-23 0 -43 19q-4 16 -4 29.5v29.5q0 4 -4 5t-8 1zM567 -162q4 8 6 17.5t7 19.5h20q12 0 16 -4 q0 -18 -1 -37.5t1 -38.5q2 -4 9.5 -4h11.5h4q-4 -10 -6 -18.5t-6 -18.5h-49v78q0 4 -4.5 4t-8.5 2zM604 -426q0 18 21 18q18 0 18 -18q1 -23 -22 -23q-16 8 -17 23zM641 -162q4 10 5 18.5t5 18.5h35q0 -20 -1 -39.5t1 -40.5q0 -4 7 -4h12h4v-4q2 -10 -3.5 -16.5t-5.5 -16.5 q-8 0 -15 -1t-15 -1q-14 0 -23 6l2 72q0 8 -8 8zM645 -360q0 10 3 17t3 17h39v-39h19q6 4 4 15.5t0 17.5v6q6 -2 11 -1t11 1h8.5t8.5 -4v-114h-39v41h-19q-6 -4 -5 -16.5t1 -18.5v-6h-39v67q2 2 2 6t-4 5t-4 6zM752 -125h36q4 -12 9.5 -23.5t7.5 -25.5q10 8 12 23.5t6 25.5 h39q-6 -31 -17 -61.5t-22 -59.5h-30q-10 29 -21.5 59.5t-19.5 61.5zM756 -326h37l12 -24q4 4 5 11t5 13h39q-4 -18 -10 -30.5t-12.5 -24.5t-9.5 -26.5t1 -36.5h-39q0 37 -2 51t-6 21t-9 14t-11 32zM850 -365q4 10 6 19.5t6 19.5h19q23 0 45 -9t22 -38q0 -23 -22 -45h-2 q-8 0 -11.5 -3t-13.5 -1v-22h-37v75q0 4 -5 4h-7zM858 -162q4 8 6 17.5t4 19.5h80q-4 -10 -7 -18.5t-3 -18.5q-4 -2 -10 -1t-10 1q-8 0 -11 -4q4 -6 15.5 -5t17.5 1h6q-2 -8 -4 -15.5t-4 -15.5h-31q4 -6 15.5 -4t17.5 0h6v-2q0 -10 -4 -19.5t-8 -19.5h-66v80q0 4 -4 3t-6 1z M899 -365v-18l4 -2q8 0 8 10t-8 10h-4zM952 -160q0 10 4.5 17.5t8.5 17.5h16q29 2 50.5 -5t21.5 -42q0 -10 -3 -20.5t-14 -16.5q0 -10 8.5 -16t8.5 -19v-2q-6 -2 -17 -2q-12 0 -23.5 4t-11.5 21q-4 -2 -4 -6v-9q0 -8 -2 -8h-34v78q0 4 -4.5 4t-4.5 4zM952 -360q0 4 5.5 17 t7.5 17l12 -2q14 0 27.5 3t27.5 3l8 -2l-4 -20t-6 -21h-31q4 -6 15.5 -4t15.5 0h6q0 -2 1 -3t1 -3q0 -6 -3 -12t-3 -12q-4 -2 -10 -1t-12 1q-8 0 -11 -4q4 -4 16.5 -3.5t18.5 0.5l6 -2q-4 -10 -5 -18t-5 -18h-69v73q0 4 -4.5 5t-4.5 6zM999 -162v-20h5q12 0 10 12v4 q-4 0 -6 2t-7 2h-2zM1044 -356q6 4 6.5 13t6.5 17l12 -2q14 0 26.5 3t26.5 3l11 -2q-4 -23 -13 -41h-30q0 -10 13 -8t19 2q2 0 3 -1t3 -1q-2 -16 -12 -35h-26v-36h-37q-4 14 -2 27.5t2 29.5q0 10 -4.5 18.5t-4.5 12.5zM1063 -160q0 20 20.5 28.5t36.5 8.5q15 0 31 -6 q-4 -8 -5 -16.5t-7 -16.5q-6 0 -12.5 2t-14.5 2q-4 0 -6 -2q6 -10 18.5 -12t22.5 -10q6 -10 6 -23q0 -14 -6 -26q-16 -14 -43 -15q-18 0 -37 6v4q0 10 3 17.5t5 17.5q8 -2 15.5 -5t15.5 -3h6q0 10 -10 12t-19 4q-6 10 -13 15.5t-7 17.5zM1112 1085q12 -2 24.5 -1t24.5 1 q18 0 29 -4v-663h297v325h225q16 68 38 134.5t38 136.5h-301q2 10 1 21.5t-1 21.5v13t4 11h252q18 82 43.5 162t46.5 162h-283q-10 -5 -6 -19q-72 -6 -144.5 -5t-144.5 1h-55q-25 -74 -44 -148.5t-44 -148.5zM1139 -379q0 23 19.5 37t41.5 14q27 0 44.5 -16t17.5 -43 q0 -23 -21.5 -44.5t-44.5 -17.5v5q-29 0 -43 18t-14 47zM1155 -162q4 10 6 18.5t4 18.5h35v-121h-35l2 78q0 4 -4 5t-8 1zM1178 -387q0 -8 8 -21q4 0 6 -1t6 -1q20 0 25 27q-2 4 -5.5 9t-5.5 9q-4 0 -5 1.5t-5 1.5q-25 0 -24 -25zM1212 -178q0 18 14.5 32.5t30.5 16.5 q4 4 17 4q10 0 20.5 -5t20.5 -9q10 -16 18 -43q-4 -23 -17 -43.5t-40 -20.5q-29 0 -46.5 19.5t-17.5 48.5zM1249 -182q0 -27 29 -27h2q14 10 14 25q0 8 -6 18q-8 4 -16 4t-15.5 -5t-7.5 -15zM1262 -365q4 10 6 19.5t6 19.5h37q2 -12 9 -20t11 -19q4 4 3 15.5t-1 17.5v6h39 v-118h-35l-12 24t-18 21v-45h-33v75q0 4 -4 4h-8zM1333 -162q4 10 6 18.5t7 18.5h34q6 -10 12.5 -18.5t10.5 -18.5q4 2 4 11.5v15.5q0 8 4 10h33v-121h-31q-8 10 -15 23.5t-14 25.5q-6 -6 -5 -19t1 -24v-6h-34v78q0 4 -4.5 4t-8.5 2zM1380 -365q0 10 3 19.5t3 19.5l13 -2 q14 0 27.5 3t27.5 3l10 -2q-4 -10 -6 -26.5t-20 -14.5v-79h-39v75q0 6 -6.5 5t-10.5 -1h-2zM1464 -360q0 20 18.5 28t35.5 8q14 0 30 -6v-6q0 -8 -3 -11t-1 -13q-4 -4 -6 -5q-6 0 -11 2.5t-11 2.5q-8 0 -11 -5q16 -4 32.5 -13t16.5 -30q0 -14 -15.5 -27.5t-29.5 -13.5h-12v5 q-8 0 -18.5 2t-10.5 12q6 10 2 22q8 4 9 5q8 0 15 -4.5t15 -4.5l4 2q0 6 -8 9.5t-17 7.5t-16.5 10t-7.5 23zM1495 -182q0 18 14.5 34.5t30.5 18.5q6 6 16 6t20.5 -6t20.5 -10q6 -10 12.5 -22.5t6.5 -24.5q0 -27 -17.5 -42.5t-42.5 -15.5q-29 0 -45 16.5t-16 45.5zM1532 -186 q-1 -23 24 -23q23 0 23 25q0 10 -8 16t-17 6q-8 0 -6 -4q-16 -2 -16 -20zM1559 -426q0 20 20 20q8 0 11 -6t7 -10v-6q0 -10 -7 -13.5t-11 -7.5h-4q-8 0 -12 9.5t-4 13.5zM1599 -383q0 27 19.5 42t44.5 15q20 0 37 -12q-4 -10 -8 -17t-6 -18q-8 8 -25 8q-6 0 -12.5 -2 t-10.5 -10v-18q0 -6 7.5 -8.5t11.5 -2.5q8 0 14 2.5t15 2.5q2 0 2 -2q2 -8 5 -13.5t7 -13.5q-4 -10 -15.5 -11.5t-19.5 -7.5h-10v5q-27 2 -41.5 19t-14.5 42zM1620 -158q0 10 4 16.5t4 16.5h33q8 -10 14 -18.5t11 -18.5q4 2 3 11.5t-1 15.5t4 10h34v-121h-30 q-4 12 -13.5 22.5t-13.5 22.5q-6 -4 -4 -16t2 -19l-2 -6q-4 -4 -16 -4h-21v78q0 4 -4 4t-4 6zM1706 -387q0 27 15.5 43t43.5 16q23 0 42.5 -15t19.5 -40q0 -27 -19.5 -47.5t-46.5 -18.5v5q-23 0 -39 17t-16 40zM1745 -385q0 -19 16 -25q18 0 27 15v6q2 14 -6 20.5t-21 3.5 h-8q-8 -8 -8 -20zM1829 -360q0 8 4 16t4 18h39q4 -6 7 -13t11 -11q6 4 10.5 11t8.5 13h39v-118h-39v53q0 2 -2 2q-4 0 -7 -7t-6 -12h-2q-10 0 -11 9.5t-9 11.5v-57h-39v73q0 4 -4 5t-4 6z" />
<glyph unicode="6" horiz-adv-x="2023" d="M0 971q4 2 4 8q4 129 39 245.5t102 227.5q23 39 58 86t77 92t86 83t85 59l2 8h8l4 6q6 4 13 6t14 6q12 8 23 15.5t22 15.5q29 16 60.5 28.5t61.5 24.5q84 33 171.5 48.5t177.5 15.5q197 0 382 -73t326 -212q47 -47 90 -99.5t78 -111.5q10 -18 18.5 -38.5t18.5 -39.5 q6 -12 13.5 -22.5t11.5 -22.5q16 -33 25 -66.5t20 -68.5q20 -80 26 -148.5t6 -152.5q0 -6 -1 -22.5t-3 -34t-4 -34t-2 -24.5q-4 -25 -10 -49.5t-12 -48.5q-45 -168 -139.5 -306.5t-223.5 -237.5t-286.5 -154.5t-331.5 -55.5q-217 0 -404.5 83t-324 225.5t-212 333 t-69.5 405.5zM164 -326h39q2 -10 4 -21t2 -22q4 10 8 20.5t4 22.5h31q4 -10 5 -21t5 -22q8 8 7 20.5t5 22.5h76v-6q0 -10 3 -16t1 -17q10 4 11.5 16.5t5.5 22.5h28q0 -12 5.5 -22t3.5 -21q8 8 8 20.5t4 22.5h76q4 -10 4 -21t4 -22q4 10 7 20.5t3 22.5h31q4 -10 6 -21t6 -22 q6 8 6 20.5t4 22.5h35q-2 -31 -10 -60.5t-12 -57.5h-39v4q2 10 -3.5 18t-2.5 19q-8 -8 -10.5 -19.5t-2.5 -21.5h-39q-6 27 -11 52t-15 50q-16 -53 -23 -102h-37q-4 10 -6 19t-6 17q-8 -6 -7 -17t-5 -19h-37q-4 29 -11.5 53t-11.5 53q-12 -25 -15 -52.5t-11 -53.5h-39v4 q2 10 -4 18t-4 19q-6 -8 -8.5 -19.5t-2.5 -21.5h-39q-4 29 -13 58t-13 60zM195 1085q12 -2 24 -1t25 1h13t13 -4v-663h297v256v44t4 44q29 -2 57.5 -1t57.5 1h33.5t36.5 -4v-336q29 -4 57.5 -4h56.5q45 0 90.5 1t92.5 -1v964q-47 -2 -92.5 0t-90.5 2q-59 0 -114 -6v-311 h-189q0 47 1 96t1 97q0 61 -6 122h-280q-4 0 -5.5 -4t-3.5 -6q-18 -72 -40.5 -143.5t-38.5 -143.5zM367 -162q4 10 5 18.5t5 18.5h76v-2q2 -10 -3.5 -17.5t-3.5 -17.5q-6 -2 -12 -1t-12 1q-8 0 -10 -4q4 -6 15 -5t17 1h7q-2 -10 -6.5 -16.5t-2.5 -18.5h-30v-41h-21 q-14 0 -18 4l2 74q0 2 -8 6zM457 -162q4 10 6 18.5t6 18.5h35q0 -12 -1 -24.5t-1 -24.5q0 -20 8 -35h6q10 0 10 12.5v20.5v51h21q12 0 16 -4l2 -37q0 -27 -7 -53.5t-42 -26.5q-23 0 -43 19q-4 16 -4 29.5v29.5q0 4 -4 5t-8 1zM567 -162q4 8 6 17.5t7 19.5h20q12 0 16 -4 q0 -18 -1 -37.5t1 -38.5q2 -4 9.5 -4h11.5h4q-4 -10 -6 -18.5t-6 -18.5h-49v78q0 4 -4.5 4t-8.5 2zM604 -426q0 18 21 18q18 0 18 -18q1 -23 -22 -23q-16 8 -17 23zM641 -162q4 10 5 18.5t5 18.5h35q0 -20 -1 -39.5t1 -40.5q0 -4 7 -4h12h4v-4q2 -10 -3.5 -16.5t-5.5 -16.5 q-8 0 -15 -1t-15 -1q-14 0 -23 6l2 72q0 8 -8 8zM645 -360q0 10 3 17t3 17h39v-39h19q6 4 4 15.5t0 17.5v6q6 -2 11 -1t11 1h8.5t8.5 -4v-114h-39v41h-19q-6 -4 -5 -16.5t1 -18.5v-6h-39v67q2 2 2 6t-4 5t-4 6zM752 -125h36q4 -12 9.5 -23.5t7.5 -25.5q10 8 12 23.5t6 25.5 h39q-6 -31 -17 -61.5t-22 -59.5h-30q-10 29 -21.5 59.5t-19.5 61.5zM756 -326h37l12 -24q4 4 5 11t5 13h39q-4 -18 -10 -30.5t-12.5 -24.5t-9.5 -26.5t1 -36.5h-39q0 37 -2 51t-6 21t-9 14t-11 32zM850 -365q4 10 6 19.5t6 19.5h19q23 0 45 -9t22 -38q0 -23 -22 -45h-2 q-8 0 -11.5 -3t-13.5 -1v-22h-37v75q0 4 -5 4h-7zM858 -162q4 8 6 17.5t4 19.5h80q-4 -10 -7 -18.5t-3 -18.5q-4 -2 -10 -1t-10 1q-8 0 -11 -4q4 -6 15.5 -5t17.5 1h6q-2 -8 -4 -15.5t-4 -15.5h-31q4 -6 15.5 -4t17.5 0h6v-2q0 -10 -4 -19.5t-8 -19.5h-66v80q0 4 -4 3t-6 1z M899 -365v-18l4 -2q8 0 8 10t-8 10h-4zM952 -160q0 10 4.5 17.5t8.5 17.5h16q29 2 50.5 -5t21.5 -42q0 -10 -3 -20.5t-14 -16.5q0 -10 8.5 -16t8.5 -19v-2q-6 -2 -17 -2q-12 0 -23.5 4t-11.5 21q-4 -2 -4 -6v-9q0 -8 -2 -8h-34v78q0 4 -4.5 4t-4.5 4zM952 -360q0 4 5.5 17 t7.5 17l12 -2q14 0 27.5 3t27.5 3l8 -2l-4 -20t-6 -21h-31q4 -6 15.5 -4t15.5 0h6q0 -2 1 -3t1 -3q0 -6 -3 -12t-3 -12q-4 -2 -10 -1t-12 1q-8 0 -11 -4q4 -4 16.5 -3.5t18.5 0.5l6 -2q-4 -10 -5 -18t-5 -18h-69v73q0 4 -4.5 5t-4.5 6zM999 -162v-20h5q12 0 10 12v4 q-4 0 -6 2t-7 2h-2zM1044 -356q6 4 6.5 13t6.5 17l12 -2q14 0 26.5 3t26.5 3l11 -2q-4 -23 -13 -41h-30q0 -10 13 -8t19 2q2 0 3 -1t3 -1q-2 -16 -12 -35h-26v-36h-37q-4 14 -2 27.5t2 29.5q0 10 -4.5 18.5t-4.5 12.5zM1063 -160q0 20 20.5 28.5t36.5 8.5q15 0 31 -6 q-4 -8 -5 -16.5t-7 -16.5q-6 0 -12.5 2t-14.5 2q-4 0 -6 -2q6 -10 18.5 -12t22.5 -10q6 -10 6 -23q0 -14 -6 -26q-16 -14 -43 -15q-18 0 -37 6v4q0 10 3 17.5t5 17.5q8 -2 15.5 -5t15.5 -3h6q0 10 -10 12t-19 4q-6 10 -13 15.5t-7 17.5zM1112 1085q12 -2 24.5 -1t24.5 1 q18 0 29 -4v-663h297v325h225q16 68 38 134.5t38 136.5h-301q2 10 1 21.5t-1 21.5v13t4 11h252q18 82 43.5 162t46.5 162h-283q-10 -5 -6 -19q-72 -6 -144.5 -5t-144.5 1h-55q-25 -74 -44 -148.5t-44 -148.5zM1139 -379q0 23 19.5 37t41.5 14q27 0 44.5 -16t17.5 -43 q0 -23 -21.5 -44.5t-44.5 -17.5v5q-29 0 -43 18t-14 47zM1155 -162q4 10 6 18.5t4 18.5h35v-121h-35l2 78q0 4 -4 5t-8 1zM1178 -387q0 -8 8 -21q4 0 6 -1t6 -1q20 0 25 27q-2 4 -5.5 9t-5.5 9q-4 0 -5 1.5t-5 1.5q-25 0 -24 -25zM1212 -178q0 18 14.5 32.5t30.5 16.5 q4 4 17 4q10 0 20.5 -5t20.5 -9q10 -16 18 -43q-4 -23 -17 -43.5t-40 -20.5q-29 0 -46.5 19.5t-17.5 48.5zM1249 -182q0 -27 29 -27h2q14 10 14 25q0 8 -6 18q-8 4 -16 4t-15.5 -5t-7.5 -15zM1262 -365q4 10 6 19.5t6 19.5h37q2 -12 9 -20t11 -19q4 4 3 15.5t-1 17.5v6h39 v-118h-35l-12 24t-18 21v-45h-33v75q0 4 -4 4h-8zM1333 -162q4 10 6 18.5t7 18.5h34q6 -10 12.5 -18.5t10.5 -18.5q4 2 4 11.5v15.5q0 8 4 10h33v-121h-31q-8 10 -15 23.5t-14 25.5q-6 -6 -5 -19t1 -24v-6h-34v78q0 4 -4.5 4t-8.5 2zM1380 -365q0 10 3 19.5t3 19.5l13 -2 q14 0 27.5 3t27.5 3l10 -2q-4 -10 -6 -26.5t-20 -14.5v-79h-39v75q0 6 -6.5 5t-10.5 -1h-2zM1464 -360q0 20 18.5 28t35.5 8q14 0 30 -6v-6q0 -8 -3 -11t-1 -13q-4 -4 -6 -5q-6 0 -11 2.5t-11 2.5q-8 0 -11 -5q16 -4 32.5 -13t16.5 -30q0 -14 -15.5 -27.5t-29.5 -13.5h-12v5 q-8 0 -18.5 2t-10.5 12q6 10 2 22q8 4 9 5q8 0 15 -4.5t15 -4.5l4 2q0 6 -8 9.5t-17 7.5t-16.5 10t-7.5 23zM1495 -182q0 18 14.5 34.5t30.5 18.5q6 6 16 6t20.5 -6t20.5 -10q6 -10 12.5 -22.5t6.5 -24.5q0 -27 -17.5 -42.5t-42.5 -15.5q-29 0 -45 16.5t-16 45.5zM1532 -186 q-1 -23 24 -23q23 0 23 25q0 10 -8 16t-17 6q-8 0 -6 -4q-16 -2 -16 -20zM1559 -426q0 20 20 20q8 0 11 -6t7 -10v-6q0 -10 -7 -13.5t-11 -7.5h-4q-8 0 -12 9.5t-4 13.5zM1599 -383q0 27 19.5 42t44.5 15q20 0 37 -12q-4 -10 -8 -17t-6 -18q-8 8 -25 8q-6 0 -12.5 -2 t-10.5 -10v-18q0 -6 7.5 -8.5t11.5 -2.5q8 0 14 2.5t15 2.5q2 0 2 -2q2 -8 5 -13.5t7 -13.5q-4 -10 -15.5 -11.5t-19.5 -7.5h-10v5q-27 2 -41.5 19t-14.5 42zM1620 -158q0 10 4 16.5t4 16.5h33q8 -10 14 -18.5t11 -18.5q4 2 3 11.5t-1 15.5t4 10h34v-121h-30 q-4 12 -13.5 22.5t-13.5 22.5q-6 -4 -4 -16t2 -19l-2 -6q-4 -4 -16 -4h-21v78q0 4 -4 4t-4 6zM1706 -387q0 27 15.5 43t43.5 16q23 0 42.5 -15t19.5 -40q0 -27 -19.5 -47.5t-46.5 -18.5v5q-23 0 -39 17t-16 40zM1745 -385q0 -19 16 -25q18 0 27 15v6q2 14 -6 20.5t-21 3.5 h-8q-8 -8 -8 -20zM1829 -360q0 8 4 16t4 18h39q4 -6 7 -13t11 -11q6 4 10.5 11t8.5 13h39v-118h-39v53q0 2 -2 2q-4 0 -7 -7t-6 -12h-2q-10 0 -11 9.5t-9 11.5v-57h-39v73q0 4 -4 5t-4 6z" />
<glyph unicode="7" horiz-adv-x="2023" d="M0 971q4 2 4 8q4 129 39 245.5t102 227.5q23 39 58 86t77 92t86 83t85 59l2 8h8l4 6q6 4 13 6t14 6q12 8 23 15.5t22 15.5q29 16 60.5 28.5t61.5 24.5q84 33 171.5 48.5t177.5 15.5q197 0 382 -73t326 -212q47 -47 90 -99.5t78 -111.5q10 -18 18.5 -38.5t18.5 -39.5 q6 -12 13.5 -22.5t11.5 -22.5q16 -33 25 -66.5t20 -68.5q20 -80 26 -148.5t6 -152.5q0 -6 -1 -22.5t-3 -34t-4 -34t-2 -24.5q-4 -25 -10 -49.5t-12 -48.5q-45 -168 -139.5 -306.5t-223.5 -237.5t-286.5 -154.5t-331.5 -55.5q-217 0 -404.5 83t-324 225.5t-212 333 t-69.5 405.5zM164 -326h39q2 -10 4 -21t2 -22q4 10 8 20.5t4 22.5h31q4 -10 5 -21t5 -22q8 8 7 20.5t5 22.5h76v-6q0 -10 3 -16t1 -17q10 4 11.5 16.5t5.5 22.5h28q0 -12 5.5 -22t3.5 -21q8 8 8 20.5t4 22.5h76q4 -10 4 -21t4 -22q4 10 7 20.5t3 22.5h31q4 -10 6 -21t6 -22 q6 8 6 20.5t4 22.5h35q-2 -31 -10 -60.5t-12 -57.5h-39v4q2 10 -3.5 18t-2.5 19q-8 -8 -10.5 -19.5t-2.5 -21.5h-39q-6 27 -11 52t-15 50q-16 -53 -23 -102h-37q-4 10 -6 19t-6 17q-8 -6 -7 -17t-5 -19h-37q-4 29 -11.5 53t-11.5 53q-12 -25 -15 -52.5t-11 -53.5h-39v4 q2 10 -4 18t-4 19q-6 -8 -8.5 -19.5t-2.5 -21.5h-39q-4 29 -13 58t-13 60zM195 1085q12 -2 24 -1t25 1h13t13 -4v-663h297v256v44t4 44q29 -2 57.5 -1t57.5 1h33.5t36.5 -4v-336q29 -4 57.5 -4h56.5q45 0 90.5 1t92.5 -1v964q-47 -2 -92.5 0t-90.5 2q-59 0 -114 -6v-311 h-189q0 47 1 96t1 97q0 61 -6 122h-280q-4 0 -5.5 -4t-3.5 -6q-18 -72 -40.5 -143.5t-38.5 -143.5zM367 -162q4 10 5 18.5t5 18.5h76v-2q2 -10 -3.5 -17.5t-3.5 -17.5q-6 -2 -12 -1t-12 1q-8 0 -10 -4q4 -6 15 -5t17 1h7q-2 -10 -6.5 -16.5t-2.5 -18.5h-30v-41h-21 q-14 0 -18 4l2 74q0 2 -8 6zM457 -162q4 10 6 18.5t6 18.5h35q0 -12 -1 -24.5t-1 -24.5q0 -20 8 -35h6q10 0 10 12.5v20.5v51h21q12 0 16 -4l2 -37q0 -27 -7 -53.5t-42 -26.5q-23 0 -43 19q-4 16 -4 29.5v29.5q0 4 -4 5t-8 1zM567 -162q4 8 6 17.5t7 19.5h20q12 0 16 -4 q0 -18 -1 -37.5t1 -38.5q2 -4 9.5 -4h11.5h4q-4 -10 -6 -18.5t-6 -18.5h-49v78q0 4 -4.5 4t-8.5 2zM604 -426q0 18 21 18q18 0 18 -18q1 -23 -22 -23q-16 8 -17 23zM641 -162q4 10 5 18.5t5 18.5h35q0 -20 -1 -39.5t1 -40.5q0 -4 7 -4h12h4v-4q2 -10 -3.5 -16.5t-5.5 -16.5 q-8 0 -15 -1t-15 -1q-14 0 -23 6l2 72q0 8 -8 8zM645 -360q0 10 3 17t3 17h39v-39h19q6 4 4 15.5t0 17.5v6q6 -2 11 -1t11 1h8.5t8.5 -4v-114h-39v41h-19q-6 -4 -5 -16.5t1 -18.5v-6h-39v67q2 2 2 6t-4 5t-4 6zM752 -125h36q4 -12 9.5 -23.5t7.5 -25.5q10 8 12 23.5t6 25.5 h39q-6 -31 -17 -61.5t-22 -59.5h-30q-10 29 -21.5 59.5t-19.5 61.5zM756 -326h37l12 -24q4 4 5 11t5 13h39q-4 -18 -10 -30.5t-12.5 -24.5t-9.5 -26.5t1 -36.5h-39q0 37 -2 51t-6 21t-9 14t-11 32zM850 -365q4 10 6 19.5t6 19.5h19q23 0 45 -9t22 -38q0 -23 -22 -45h-2 q-8 0 -11.5 -3t-13.5 -1v-22h-37v75q0 4 -5 4h-7zM858 -162q4 8 6 17.5t4 19.5h80q-4 -10 -7 -18.5t-3 -18.5q-4 -2 -10 -1t-10 1q-8 0 -11 -4q4 -6 15.5 -5t17.5 1h6q-2 -8 -4 -15.5t-4 -15.5h-31q4 -6 15.5 -4t17.5 0h6v-2q0 -10 -4 -19.5t-8 -19.5h-66v80q0 4 -4 3t-6 1z M899 -365v-18l4 -2q8 0 8 10t-8 10h-4zM952 -160q0 10 4.5 17.5t8.5 17.5h16q29 2 50.5 -5t21.5 -42q0 -10 -3 -20.5t-14 -16.5q0 -10 8.5 -16t8.5 -19v-2q-6 -2 -17 -2q-12 0 -23.5 4t-11.5 21q-4 -2 -4 -6v-9q0 -8 -2 -8h-34v78q0 4 -4.5 4t-4.5 4zM952 -360q0 4 5.5 17 t7.5 17l12 -2q14 0 27.5 3t27.5 3l8 -2l-4 -20t-6 -21h-31q4 -6 15.5 -4t15.5 0h6q0 -2 1 -3t1 -3q0 -6 -3 -12t-3 -12q-4 -2 -10 -1t-12 1q-8 0 -11 -4q4 -4 16.5 -3.5t18.5 0.5l6 -2q-4 -10 -5 -18t-5 -18h-69v73q0 4 -4.5 5t-4.5 6zM999 -162v-20h5q12 0 10 12v4 q-4 0 -6 2t-7 2h-2zM1044 -356q6 4 6.5 13t6.5 17l12 -2q14 0 26.5 3t26.5 3l11 -2q-4 -23 -13 -41h-30q0 -10 13 -8t19 2q2 0 3 -1t3 -1q-2 -16 -12 -35h-26v-36h-37q-4 14 -2 27.5t2 29.5q0 10 -4.5 18.5t-4.5 12.5zM1063 -160q0 20 20.5 28.5t36.5 8.5q15 0 31 -6 q-4 -8 -5 -16.5t-7 -16.5q-6 0 -12.5 2t-14.5 2q-4 0 -6 -2q6 -10 18.5 -12t22.5 -10q6 -10 6 -23q0 -14 -6 -26q-16 -14 -43 -15q-18 0 -37 6v4q0 10 3 17.5t5 17.5q8 -2 15.5 -5t15.5 -3h6q0 10 -10 12t-19 4q-6 10 -13 15.5t-7 17.5zM1112 1085q12 -2 24.5 -1t24.5 1 q18 0 29 -4v-663h297v325h225q16 68 38 134.5t38 136.5h-301q2 10 1 21.5t-1 21.5v13t4 11h252q18 82 43.5 162t46.5 162h-283q-10 -5 -6 -19q-72 -6 -144.5 -5t-144.5 1h-55q-25 -74 -44 -148.5t-44 -148.5zM1139 -379q0 23 19.5 37t41.5 14q27 0 44.5 -16t17.5 -43 q0 -23 -21.5 -44.5t-44.5 -17.5v5q-29 0 -43 18t-14 47zM1155 -162q4 10 6 18.5t4 18.5h35v-121h-35l2 78q0 4 -4 5t-8 1zM1178 -387q0 -8 8 -21q4 0 6 -1t6 -1q20 0 25 27q-2 4 -5.5 9t-5.5 9q-4 0 -5 1.5t-5 1.5q-25 0 -24 -25zM1212 -178q0 18 14.5 32.5t30.5 16.5 q4 4 17 4q10 0 20.5 -5t20.5 -9q10 -16 18 -43q-4 -23 -17 -43.5t-40 -20.5q-29 0 -46.5 19.5t-17.5 48.5zM1249 -182q0 -27 29 -27h2q14 10 14 25q0 8 -6 18q-8 4 -16 4t-15.5 -5t-7.5 -15zM1262 -365q4 10 6 19.5t6 19.5h37q2 -12 9 -20t11 -19q4 4 3 15.5t-1 17.5v6h39 v-118h-35l-12 24t-18 21v-45h-33v75q0 4 -4 4h-8zM1333 -162q4 10 6 18.5t7 18.5h34q6 -10 12.5 -18.5t10.5 -18.5q4 2 4 11.5v15.5q0 8 4 10h33v-121h-31q-8 10 -15 23.5t-14 25.5q-6 -6 -5 -19t1 -24v-6h-34v78q0 4 -4.5 4t-8.5 2zM1380 -365q0 10 3 19.5t3 19.5l13 -2 q14 0 27.5 3t27.5 3l10 -2q-4 -10 -6 -26.5t-20 -14.5v-79h-39v75q0 6 -6.5 5t-10.5 -1h-2zM1464 -360q0 20 18.5 28t35.5 8q14 0 30 -6v-6q0 -8 -3 -11t-1 -13q-4 -4 -6 -5q-6 0 -11 2.5t-11 2.5q-8 0 -11 -5q16 -4 32.5 -13t16.5 -30q0 -14 -15.5 -27.5t-29.5 -13.5h-12v5 q-8 0 -18.5 2t-10.5 12q6 10 2 22q8 4 9 5q8 0 15 -4.5t15 -4.5l4 2q0 6 -8 9.5t-17 7.5t-16.5 10t-7.5 23zM1495 -182q0 18 14.5 34.5t30.5 18.5q6 6 16 6t20.5 -6t20.5 -10q6 -10 12.5 -22.5t6.5 -24.5q0 -27 -17.5 -42.5t-42.5 -15.5q-29 0 -45 16.5t-16 45.5zM1532 -186 q-1 -23 24 -23q23 0 23 25q0 10 -8 16t-17 6q-8 0 -6 -4q-16 -2 -16 -20zM1559 -426q0 20 20 20q8 0 11 -6t7 -10v-6q0 -10 -7 -13.5t-11 -7.5h-4q-8 0 -12 9.5t-4 13.5zM1599 -383q0 27 19.5 42t44.5 15q20 0 37 -12q-4 -10 -8 -17t-6 -18q-8 8 -25 8q-6 0 -12.5 -2 t-10.5 -10v-18q0 -6 7.5 -8.5t11.5 -2.5q8 0 14 2.5t15 2.5q2 0 2 -2q2 -8 5 -13.5t7 -13.5q-4 -10 -15.5 -11.5t-19.5 -7.5h-10v5q-27 2 -41.5 19t-14.5 42zM1620 -158q0 10 4 16.5t4 16.5h33q8 -10 14 -18.5t11 -18.5q4 2 3 11.5t-1 15.5t4 10h34v-121h-30 q-4 12 -13.5 22.5t-13.5 22.5q-6 -4 -4 -16t2 -19l-2 -6q-4 -4 -16 -4h-21v78q0 4 -4 4t-4 6zM1706 -387q0 27 15.5 43t43.5 16q23 0 42.5 -15t19.5 -40q0 -27 -19.5 -47.5t-46.5 -18.5v5q-23 0 -39 17t-16 40zM1745 -385q0 -19 16 -25q18 0 27 15v6q2 14 -6 20.5t-21 3.5 h-8q-8 -8 -8 -20zM1829 -360q0 8 4 16t4 18h39q4 -6 7 -13t11 -11q6 4 10.5 11t8.5 13h39v-118h-39v53q0 2 -2 2q-4 0 -7 -7t-6 -12h-2q-10 0 -11 9.5t-9 11.5v-57h-39v73q0 4 -4 5t-4 6z" />
<glyph unicode="8" horiz-adv-x="2023" d="M0 971q4 2 4 8q4 129 39 245.5t102 227.5q23 39 58 86t77 92t86 83t85 59l2 8h8l4 6q6 4 13 6t14 6q12 8 23 15.5t22 15.5q29 16 60.5 28.5t61.5 24.5q84 33 171.5 48.5t177.5 15.5q197 0 382 -73t326 -212q47 -47 90 -99.5t78 -111.5q10 -18 18.5 -38.5t18.5 -39.5 q6 -12 13.5 -22.5t11.5 -22.5q16 -33 25 -66.5t20 -68.5q20 -80 26 -148.5t6 -152.5q0 -6 -1 -22.5t-3 -34t-4 -34t-2 -24.5q-4 -25 -10 -49.5t-12 -48.5q-45 -168 -139.5 -306.5t-223.5 -237.5t-286.5 -154.5t-331.5 -55.5q-217 0 -404.5 83t-324 225.5t-212 333 t-69.5 405.5zM164 -326h39q2 -10 4 -21t2 -22q4 10 8 20.5t4 22.5h31q4 -10 5 -21t5 -22q8 8 7 20.5t5 22.5h76v-6q0 -10 3 -16t1 -17q10 4 11.5 16.5t5.5 22.5h28q0 -12 5.5 -22t3.5 -21q8 8 8 20.5t4 22.5h76q4 -10 4 -21t4 -22q4 10 7 20.5t3 22.5h31q4 -10 6 -21t6 -22 q6 8 6 20.5t4 22.5h35q-2 -31 -10 -60.5t-12 -57.5h-39v4q2 10 -3.5 18t-2.5 19q-8 -8 -10.5 -19.5t-2.5 -21.5h-39q-6 27 -11 52t-15 50q-16 -53 -23 -102h-37q-4 10 -6 19t-6 17q-8 -6 -7 -17t-5 -19h-37q-4 29 -11.5 53t-11.5 53q-12 -25 -15 -52.5t-11 -53.5h-39v4 q2 10 -4 18t-4 19q-6 -8 -8.5 -19.5t-2.5 -21.5h-39q-4 29 -13 58t-13 60zM195 1085q12 -2 24 -1t25 1h13t13 -4v-663h297v256v44t4 44q29 -2 57.5 -1t57.5 1h33.5t36.5 -4v-336q29 -4 57.5 -4h56.5q45 0 90.5 1t92.5 -1v964q-47 -2 -92.5 0t-90.5 2q-59 0 -114 -6v-311 h-189q0 47 1 96t1 97q0 61 -6 122h-280q-4 0 -5.5 -4t-3.5 -6q-18 -72 -40.5 -143.5t-38.5 -143.5zM367 -162q4 10 5 18.5t5 18.5h76v-2q2 -10 -3.5 -17.5t-3.5 -17.5q-6 -2 -12 -1t-12 1q-8 0 -10 -4q4 -6 15 -5t17 1h7q-2 -10 -6.5 -16.5t-2.5 -18.5h-30v-41h-21 q-14 0 -18 4l2 74q0 2 -8 6zM457 -162q4 10 6 18.5t6 18.5h35q0 -12 -1 -24.5t-1 -24.5q0 -20 8 -35h6q10 0 10 12.5v20.5v51h21q12 0 16 -4l2 -37q0 -27 -7 -53.5t-42 -26.5q-23 0 -43 19q-4 16 -4 29.5v29.5q0 4 -4 5t-8 1zM567 -162q4 8 6 17.5t7 19.5h20q12 0 16 -4 q0 -18 -1 -37.5t1 -38.5q2 -4 9.5 -4h11.5h4q-4 -10 -6 -18.5t-6 -18.5h-49v78q0 4 -4.5 4t-8.5 2zM604 -426q0 18 21 18q18 0 18 -18q1 -23 -22 -23q-16 8 -17 23zM641 -162q4 10 5 18.5t5 18.5h35q0 -20 -1 -39.5t1 -40.5q0 -4 7 -4h12h4v-4q2 -10 -3.5 -16.5t-5.5 -16.5 q-8 0 -15 -1t-15 -1q-14 0 -23 6l2 72q0 8 -8 8zM645 -360q0 10 3 17t3 17h39v-39h19q6 4 4 15.5t0 17.5v6q6 -2 11 -1t11 1h8.5t8.5 -4v-114h-39v41h-19q-6 -4 -5 -16.5t1 -18.5v-6h-39v67q2 2 2 6t-4 5t-4 6zM752 -125h36q4 -12 9.5 -23.5t7.5 -25.5q10 8 12 23.5t6 25.5 h39q-6 -31 -17 -61.5t-22 -59.5h-30q-10 29 -21.5 59.5t-19.5 61.5zM756 -326h37l12 -24q4 4 5 11t5 13h39q-4 -18 -10 -30.5t-12.5 -24.5t-9.5 -26.5t1 -36.5h-39q0 37 -2 51t-6 21t-9 14t-11 32zM850 -365q4 10 6 19.5t6 19.5h19q23 0 45 -9t22 -38q0 -23 -22 -45h-2 q-8 0 -11.5 -3t-13.5 -1v-22h-37v75q0 4 -5 4h-7zM858 -162q4 8 6 17.5t4 19.5h80q-4 -10 -7 -18.5t-3 -18.5q-4 -2 -10 -1t-10 1q-8 0 -11 -4q4 -6 15.5 -5t17.5 1h6q-2 -8 -4 -15.5t-4 -15.5h-31q4 -6 15.5 -4t17.5 0h6v-2q0 -10 -4 -19.5t-8 -19.5h-66v80q0 4 -4 3t-6 1z M899 -365v-18l4 -2q8 0 8 10t-8 10h-4zM952 -160q0 10 4.5 17.5t8.5 17.5h16q29 2 50.5 -5t21.5 -42q0 -10 -3 -20.5t-14 -16.5q0 -10 8.5 -16t8.5 -19v-2q-6 -2 -17 -2q-12 0 -23.5 4t-11.5 21q-4 -2 -4 -6v-9q0 -8 -2 -8h-34v78q0 4 -4.5 4t-4.5 4zM952 -360q0 4 5.5 17 t7.5 17l12 -2q14 0 27.5 3t27.5 3l8 -2l-4 -20t-6 -21h-31q4 -6 15.5 -4t15.5 0h6q0 -2 1 -3t1 -3q0 -6 -3 -12t-3 -12q-4 -2 -10 -1t-12 1q-8 0 -11 -4q4 -4 16.5 -3.5t18.5 0.5l6 -2q-4 -10 -5 -18t-5 -18h-69v73q0 4 -4.5 5t-4.5 6zM999 -162v-20h5q12 0 10 12v4 q-4 0 -6 2t-7 2h-2zM1044 -356q6 4 6.5 13t6.5 17l12 -2q14 0 26.5 3t26.5 3l11 -2q-4 -23 -13 -41h-30q0 -10 13 -8t19 2q2 0 3 -1t3 -1q-2 -16 -12 -35h-26v-36h-37q-4 14 -2 27.5t2 29.5q0 10 -4.5 18.5t-4.5 12.5zM1063 -160q0 20 20.5 28.5t36.5 8.5q15 0 31 -6 q-4 -8 -5 -16.5t-7 -16.5q-6 0 -12.5 2t-14.5 2q-4 0 -6 -2q6 -10 18.5 -12t22.5 -10q6 -10 6 -23q0 -14 -6 -26q-16 -14 -43 -15q-18 0 -37 6v4q0 10 3 17.5t5 17.5q8 -2 15.5 -5t15.5 -3h6q0 10 -10 12t-19 4q-6 10 -13 15.5t-7 17.5zM1112 1085q12 -2 24.5 -1t24.5 1 q18 0 29 -4v-663h297v325h225q16 68 38 134.5t38 136.5h-301q2 10 1 21.5t-1 21.5v13t4 11h252q18 82 43.5 162t46.5 162h-283q-10 -5 -6 -19q-72 -6 -144.5 -5t-144.5 1h-55q-25 -74 -44 -148.5t-44 -148.5zM1139 -379q0 23 19.5 37t41.5 14q27 0 44.5 -16t17.5 -43 q0 -23 -21.5 -44.5t-44.5 -17.5v5q-29 0 -43 18t-14 47zM1155 -162q4 10 6 18.5t4 18.5h35v-121h-35l2 78q0 4 -4 5t-8 1zM1178 -387q0 -8 8 -21q4 0 6 -1t6 -1q20 0 25 27q-2 4 -5.5 9t-5.5 9q-4 0 -5 1.5t-5 1.5q-25 0 -24 -25zM1212 -178q0 18 14.5 32.5t30.5 16.5 q4 4 17 4q10 0 20.5 -5t20.5 -9q10 -16 18 -43q-4 -23 -17 -43.5t-40 -20.5q-29 0 -46.5 19.5t-17.5 48.5zM1249 -182q0 -27 29 -27h2q14 10 14 25q0 8 -6 18q-8 4 -16 4t-15.5 -5t-7.5 -15zM1262 -365q4 10 6 19.5t6 19.5h37q2 -12 9 -20t11 -19q4 4 3 15.5t-1 17.5v6h39 v-118h-35l-12 24t-18 21v-45h-33v75q0 4 -4 4h-8zM1333 -162q4 10 6 18.5t7 18.5h34q6 -10 12.5 -18.5t10.5 -18.5q4 2 4 11.5v15.5q0 8 4 10h33v-121h-31q-8 10 -15 23.5t-14 25.5q-6 -6 -5 -19t1 -24v-6h-34v78q0 4 -4.5 4t-8.5 2zM1380 -365q0 10 3 19.5t3 19.5l13 -2 q14 0 27.5 3t27.5 3l10 -2q-4 -10 -6 -26.5t-20 -14.5v-79h-39v75q0 6 -6.5 5t-10.5 -1h-2zM1464 -360q0 20 18.5 28t35.5 8q14 0 30 -6v-6q0 -8 -3 -11t-1 -13q-4 -4 -6 -5q-6 0 -11 2.5t-11 2.5q-8 0 -11 -5q16 -4 32.5 -13t16.5 -30q0 -14 -15.5 -27.5t-29.5 -13.5h-12v5 q-8 0 -18.5 2t-10.5 12q6 10 2 22q8 4 9 5q8 0 15 -4.5t15 -4.5l4 2q0 6 -8 9.5t-17 7.5t-16.5 10t-7.5 23zM1495 -182q0 18 14.5 34.5t30.5 18.5q6 6 16 6t20.5 -6t20.5 -10q6 -10 12.5 -22.5t6.5 -24.5q0 -27 -17.5 -42.5t-42.5 -15.5q-29 0 -45 16.5t-16 45.5zM1532 -186 q-1 -23 24 -23q23 0 23 25q0 10 -8 16t-17 6q-8 0 -6 -4q-16 -2 -16 -20zM1559 -426q0 20 20 20q8 0 11 -6t7 -10v-6q0 -10 -7 -13.5t-11 -7.5h-4q-8 0 -12 9.5t-4 13.5zM1599 -383q0 27 19.5 42t44.5 15q20 0 37 -12q-4 -10 -8 -17t-6 -18q-8 8 -25 8q-6 0 -12.5 -2 t-10.5 -10v-18q0 -6 7.5 -8.5t11.5 -2.5q8 0 14 2.5t15 2.5q2 0 2 -2q2 -8 5 -13.5t7 -13.5q-4 -10 -15.5 -11.5t-19.5 -7.5h-10v5q-27 2 -41.5 19t-14.5 42zM1620 -158q0 10 4 16.5t4 16.5h33q8 -10 14 -18.5t11 -18.5q4 2 3 11.5t-1 15.5t4 10h34v-121h-30 q-4 12 -13.5 22.5t-13.5 22.5q-6 -4 -4 -16t2 -19l-2 -6q-4 -4 -16 -4h-21v78q0 4 -4 4t-4 6zM1706 -387q0 27 15.5 43t43.5 16q23 0 42.5 -15t19.5 -40q0 -27 -19.5 -47.5t-46.5 -18.5v5q-23 0 -39 17t-16 40zM1745 -385q0 -19 16 -25q18 0 27 15v6q2 14 -6 20.5t-21 3.5 h-8q-8 -8 -8 -20zM1829 -360q0 8 4 16t4 18h39q4 -6 7 -13t11 -11q6 4 10.5 11t8.5 13h39v-118h-39v53q0 2 -2 2q-4 0 -7 -7t-6 -12h-2q-10 0 -11 9.5t-9 11.5v-57h-39v73q0 4 -4 5t-4 6z" />
<glyph unicode="9" horiz-adv-x="2023" d="M0 971q4 2 4 8q4 129 39 245.5t102 227.5q23 39 58 86t77 92t86 83t85 59l2 8h8l4 6q6 4 13 6t14 6q12 8 23 15.5t22 15.5q29 16 60.5 28.5t61.5 24.5q84 33 171.5 48.5t177.5 15.5q197 0 382 -73t326 -212q47 -47 90 -99.5t78 -111.5q10 -18 18.5 -38.5t18.5 -39.5 q6 -12 13.5 -22.5t11.5 -22.5q16 -33 25 -66.5t20 -68.5q20 -80 26 -148.5t6 -152.5q0 -6 -1 -22.5t-3 -34t-4 -34t-2 -24.5q-4 -25 -10 -49.5t-12 -48.5q-45 -168 -139.5 -306.5t-223.5 -237.5t-286.5 -154.5t-331.5 -55.5q-217 0 -404.5 83t-324 225.5t-212 333 t-69.5 405.5zM164 -326h39q2 -10 4 -21t2 -22q4 10 8 20.5t4 22.5h31q4 -10 5 -21t5 -22q8 8 7 20.5t5 22.5h76v-6q0 -10 3 -16t1 -17q10 4 11.5 16.5t5.5 22.5h28q0 -12 5.5 -22t3.5 -21q8 8 8 20.5t4 22.5h76q4 -10 4 -21t4 -22q4 10 7 20.5t3 22.5h31q4 -10 6 -21t6 -22 q6 8 6 20.5t4 22.5h35q-2 -31 -10 -60.5t-12 -57.5h-39v4q2 10 -3.5 18t-2.5 19q-8 -8 -10.5 -19.5t-2.5 -21.5h-39q-6 27 -11 52t-15 50q-16 -53 -23 -102h-37q-4 10 -6 19t-6 17q-8 -6 -7 -17t-5 -19h-37q-4 29 -11.5 53t-11.5 53q-12 -25 -15 -52.5t-11 -53.5h-39v4 q2 10 -4 18t-4 19q-6 -8 -8.5 -19.5t-2.5 -21.5h-39q-4 29 -13 58t-13 60zM195 1085q12 -2 24 -1t25 1h13t13 -4v-663h297v256v44t4 44q29 -2 57.5 -1t57.5 1h33.5t36.5 -4v-336q29 -4 57.5 -4h56.5q45 0 90.5 1t92.5 -1v964q-47 -2 -92.5 0t-90.5 2q-59 0 -114 -6v-311 h-189q0 47 1 96t1 97q0 61 -6 122h-280q-4 0 -5.5 -4t-3.5 -6q-18 -72 -40.5 -143.5t-38.5 -143.5zM367 -162q4 10 5 18.5t5 18.5h76v-2q2 -10 -3.5 -17.5t-3.5 -17.5q-6 -2 -12 -1t-12 1q-8 0 -10 -4q4 -6 15 -5t17 1h7q-2 -10 -6.5 -16.5t-2.5 -18.5h-30v-41h-21 q-14 0 -18 4l2 74q0 2 -8 6zM457 -162q4 10 6 18.5t6 18.5h35q0 -12 -1 -24.5t-1 -24.5q0 -20 8 -35h6q10 0 10 12.5v20.5v51h21q12 0 16 -4l2 -37q0 -27 -7 -53.5t-42 -26.5q-23 0 -43 19q-4 16 -4 29.5v29.5q0 4 -4 5t-8 1zM567 -162q4 8 6 17.5t7 19.5h20q12 0 16 -4 q0 -18 -1 -37.5t1 -38.5q2 -4 9.5 -4h11.5h4q-4 -10 -6 -18.5t-6 -18.5h-49v78q0 4 -4.5 4t-8.5 2zM604 -426q0 18 21 18q18 0 18 -18q1 -23 -22 -23q-16 8 -17 23zM641 -162q4 10 5 18.5t5 18.5h35q0 -20 -1 -39.5t1 -40.5q0 -4 7 -4h12h4v-4q2 -10 -3.5 -16.5t-5.5 -16.5 q-8 0 -15 -1t-15 -1q-14 0 -23 6l2 72q0 8 -8 8zM645 -360q0 10 3 17t3 17h39v-39h19q6 4 4 15.5t0 17.5v6q6 -2 11 -1t11 1h8.5t8.5 -4v-114h-39v41h-19q-6 -4 -5 -16.5t1 -18.5v-6h-39v67q2 2 2 6t-4 5t-4 6zM752 -125h36q4 -12 9.5 -23.5t7.5 -25.5q10 8 12 23.5t6 25.5 h39q-6 -31 -17 -61.5t-22 -59.5h-30q-10 29 -21.5 59.5t-19.5 61.5zM756 -326h37l12 -24q4 4 5 11t5 13h39q-4 -18 -10 -30.5t-12.5 -24.5t-9.5 -26.5t1 -36.5h-39q0 37 -2 51t-6 21t-9 14t-11 32zM850 -365q4 10 6 19.5t6 19.5h19q23 0 45 -9t22 -38q0 -23 -22 -45h-2 q-8 0 -11.5 -3t-13.5 -1v-22h-37v75q0 4 -5 4h-7zM858 -162q4 8 6 17.5t4 19.5h80q-4 -10 -7 -18.5t-3 -18.5q-4 -2 -10 -1t-10 1q-8 0 -11 -4q4 -6 15.5 -5t17.5 1h6q-2 -8 -4 -15.5t-4 -15.5h-31q4 -6 15.5 -4t17.5 0h6v-2q0 -10 -4 -19.5t-8 -19.5h-66v80q0 4 -4 3t-6 1z M899 -365v-18l4 -2q8 0 8 10t-8 10h-4zM952 -160q0 10 4.5 17.5t8.5 17.5h16q29 2 50.5 -5t21.5 -42q0 -10 -3 -20.5t-14 -16.5q0 -10 8.5 -16t8.5 -19v-2q-6 -2 -17 -2q-12 0 -23.5 4t-11.5 21q-4 -2 -4 -6v-9q0 -8 -2 -8h-34v78q0 4 -4.5 4t-4.5 4zM952 -360q0 4 5.5 17 t7.5 17l12 -2q14 0 27.5 3t27.5 3l8 -2l-4 -20t-6 -21h-31q4 -6 15.5 -4t15.5 0h6q0 -2 1 -3t1 -3q0 -6 -3 -12t-3 -12q-4 -2 -10 -1t-12 1q-8 0 -11 -4q4 -4 16.5 -3.5t18.5 0.5l6 -2q-4 -10 -5 -18t-5 -18h-69v73q0 4 -4.5 5t-4.5 6zM999 -162v-20h5q12 0 10 12v4 q-4 0 -6 2t-7 2h-2zM1044 -356q6 4 6.5 13t6.5 17l12 -2q14 0 26.5 3t26.5 3l11 -2q-4 -23 -13 -41h-30q0 -10 13 -8t19 2q2 0 3 -1t3 -1q-2 -16 -12 -35h-26v-36h-37q-4 14 -2 27.5t2 29.5q0 10 -4.5 18.5t-4.5 12.5zM1063 -160q0 20 20.5 28.5t36.5 8.5q15 0 31 -6 q-4 -8 -5 -16.5t-7 -16.5q-6 0 -12.5 2t-14.5 2q-4 0 -6 -2q6 -10 18.5 -12t22.5 -10q6 -10 6 -23q0 -14 -6 -26q-16 -14 -43 -15q-18 0 -37 6v4q0 10 3 17.5t5 17.5q8 -2 15.5 -5t15.5 -3h6q0 10 -10 12t-19 4q-6 10 -13 15.5t-7 17.5zM1112 1085q12 -2 24.5 -1t24.5 1 q18 0 29 -4v-663h297v325h225q16 68 38 134.5t38 136.5h-301q2 10 1 21.5t-1 21.5v13t4 11h252q18 82 43.5 162t46.5 162h-283q-10 -5 -6 -19q-72 -6 -144.5 -5t-144.5 1h-55q-25 -74 -44 -148.5t-44 -148.5zM1139 -379q0 23 19.5 37t41.5 14q27 0 44.5 -16t17.5 -43 q0 -23 -21.5 -44.5t-44.5 -17.5v5q-29 0 -43 18t-14 47zM1155 -162q4 10 6 18.5t4 18.5h35v-121h-35l2 78q0 4 -4 5t-8 1zM1178 -387q0 -8 8 -21q4 0 6 -1t6 -1q20 0 25 27q-2 4 -5.5 9t-5.5 9q-4 0 -5 1.5t-5 1.5q-25 0 -24 -25zM1212 -178q0 18 14.5 32.5t30.5 16.5 q4 4 17 4q10 0 20.5 -5t20.5 -9q10 -16 18 -43q-4 -23 -17 -43.5t-40 -20.5q-29 0 -46.5 19.5t-17.5 48.5zM1249 -182q0 -27 29 -27h2q14 10 14 25q0 8 -6 18q-8 4 -16 4t-15.5 -5t-7.5 -15zM1262 -365q4 10 6 19.5t6 19.5h37q2 -12 9 -20t11 -19q4 4 3 15.5t-1 17.5v6h39 v-118h-35l-12 24t-18 21v-45h-33v75q0 4 -4 4h-8zM1333 -162q4 10 6 18.5t7 18.5h34q6 -10 12.5 -18.5t10.5 -18.5q4 2 4 11.5v15.5q0 8 4 10h33v-121h-31q-8 10 -15 23.5t-14 25.5q-6 -6 -5 -19t1 -24v-6h-34v78q0 4 -4.5 4t-8.5 2zM1380 -365q0 10 3 19.5t3 19.5l13 -2 q14 0 27.5 3t27.5 3l10 -2q-4 -10 -6 -26.5t-20 -14.5v-79h-39v75q0 6 -6.5 5t-10.5 -1h-2zM1464 -360q0 20 18.5 28t35.5 8q14 0 30 -6v-6q0 -8 -3 -11t-1 -13q-4 -4 -6 -5q-6 0 -11 2.5t-11 2.5q-8 0 -11 -5q16 -4 32.5 -13t16.5 -30q0 -14 -15.5 -27.5t-29.5 -13.5h-12v5 q-8 0 -18.5 2t-10.5 12q6 10 2 22q8 4 9 5q8 0 15 -4.5t15 -4.5l4 2q0 6 -8 9.5t-17 7.5t-16.5 10t-7.5 23zM1495 -182q0 18 14.5 34.5t30.5 18.5q6 6 16 6t20.5 -6t20.5 -10q6 -10 12.5 -22.5t6.5 -24.5q0 -27 -17.5 -42.5t-42.5 -15.5q-29 0 -45 16.5t-16 45.5zM1532 -186 q-1 -23 24 -23q23 0 23 25q0 10 -8 16t-17 6q-8 0 -6 -4q-16 -2 -16 -20zM1559 -426q0 20 20 20q8 0 11 -6t7 -10v-6q0 -10 -7 -13.5t-11 -7.5h-4q-8 0 -12 9.5t-4 13.5zM1599 -383q0 27 19.5 42t44.5 15q20 0 37 -12q-4 -10 -8 -17t-6 -18q-8 8 -25 8q-6 0 -12.5 -2 t-10.5 -10v-18q0 -6 7.5 -8.5t11.5 -2.5q8 0 14 2.5t15 2.5q2 0 2 -2q2 -8 5 -13.5t7 -13.5q-4 -10 -15.5 -11.5t-19.5 -7.5h-10v5q-27 2 -41.5 19t-14.5 42zM1620 -158q0 10 4 16.5t4 16.5h33q8 -10 14 -18.5t11 -18.5q4 2 3 11.5t-1 15.5t4 10h34v-121h-30 q-4 12 -13.5 22.5t-13.5 22.5q-6 -4 -4 -16t2 -19l-2 -6q-4 -4 -16 -4h-21v78q0 4 -4 4t-4 6zM1706 -387q0 27 15.5 43t43.5 16q23 0 42.5 -15t19.5 -40q0 -27 -19.5 -47.5t-46.5 -18.5v5q-23 0 -39 17t-16 40zM1745 -385q0 -19 16 -25q18 0 27 15v6q2 14 -6 20.5t-21 3.5 h-8q-8 -8 -8 -20zM1829 -360q0 8 4 16t4 18h39q4 -6 7 -13t11 -11q6 4 10.5 11t8.5 13h39v-118h-39v53q0 2 -2 2q-4 0 -7 -7t-6 -12h-2q-10 0 -11 9.5t-9 11.5v-57h-39v73q0 4 -4 5t-4 6z" />
<glyph unicode=":" horiz-adv-x="976" d="M463 141q0 41 15.5 76t43 61.5t62 41t75.5 14.5q39 0 75 -14.5t62.5 -41t42 -61.5t15.5 -76t-15.5 -74.5t-42 -60t-62.5 -41t-75 -14.5q-41 0 -75.5 14.5t-62 41t-43 60t-15.5 74.5zM463 1018q0 39 15.5 74.5t43 61.5t62 41t75.5 15q39 0 75 -15t62.5 -41t42 -61.5 t15.5 -74.5q0 -41 -15.5 -76t-42 -60.5t-62.5 -41t-75 -15.5q-41 0 -75.5 15.5t-62 41t-43 60.5t-15.5 76z" />
<glyph unicode=";" horiz-adv-x="966" d="M463 1018q0 39 15.5 74.5t42 61.5t61 41t75.5 15q39 0 75 -15t62.5 -41t42 -61.5t15.5 -74.5q0 -41 -15.5 -76t-42 -60.5t-62.5 -41t-75 -15.5q-41 0 -75.5 15.5t-61 41t-42 60.5t-15.5 76zM475 -264l41 512l283 -70l-111 -497z" />
<glyph unicode="&#x3c;" horiz-adv-x="1572" d="M0 807l1313 731l194 -295l-784 -436l784 -436l-194 -295z" />
<glyph unicode="=" horiz-adv-x="1132" d="M176 319v275h830v-275h-830zM176 874v275h830v-275h-830z" />
<glyph unicode="&#x3e;" horiz-adv-x="1492" d="M-16 371l784 436l-784 436l194 295l1315 -731l-1315 -731z" />
<glyph unicode="?" horiz-adv-x="1558" d="M252 1174q2 123 51 229t131 186t189.5 125t230.5 45q125 0 234.5 -48t191.5 -130t129 -192.5t47 -235.5q0 -94 -32.5 -184t-91 -165t-136.5 -130t-170 -80v-121h-375v197q0 92 58.5 164.5t144.5 97.5q16 4 32.5 9t33.5 9q72 20 117.5 77.5t45.5 133.5q0 47 -18 88t-49 72 t-73 49.5t-89 18.5q-92 0 -156.5 -61.5t-70.5 -153.5h-375zM645 141q0 41 15.5 77t42 61.5t61.5 41t76 15.5q39 0 74.5 -15.5t62.5 -41t42 -61.5t15 -77t-15 -74.5t-42 -60t-62.5 -41t-74.5 -14.5q-41 0 -76 14.5t-61.5 41t-42 60t-15.5 74.5z" />
<glyph unicode="@" horiz-adv-x="1716" d="M98 788q0 170 61.5 324t171 269.5t258 184t322.5 68.5q147 0 273.5 -51t216.5 -143t141 -217t51 -273q0 -170 -46 -279.5t-132 -174t-208.5 -89t-276.5 -24.5q-66 0 -129.5 11.5t-114.5 40t-83 77.5t-32 127q0 76 35 127t90.5 81t123 41t130.5 9v4q0 33 -15 62.5 t-54 29.5q-35 0 -50.5 -32.5t-13.5 -61.5l-233 8q4 63 25.5 120.5t60.5 100.5t92 69t119 26q119 0 181 -51.5t89 -130t28 -174t1 -183.5q39 14 64.5 44t39.5 66.5t19.5 76.5t5.5 77q0 88 -28 162t-80 128t-124.5 84t-161.5 30q-115 0 -213 -46t-168.5 -123t-110.5 -178.5 t-40 -213.5q0 -131 49 -231.5t132 -169t194.5 -103.5t234.5 -35q106 0 210 25.5t196 76.5l135 -245q-129 -68 -268.5 -102t-282.5 -34q-182 0 -343 56.5t-281.5 161t-190.5 256t-70 341.5zM803 633q0 -8 11 -12.5t25.5 -6.5t29 -2h20.5h28.5t30.5 2v54q-16 2 -29.5 3 t-29.5 1q-10 0 -24.5 -1t-29 -4t-23.5 -11.5t-9 -22.5zM1393 350l10 4l129 -245l-8 -5z" />
<glyph unicode="A" horiz-adv-x="1714" d="M78 0l588 1589h374l588 -1589h-448l-82 219h-490l-82 -219h-448zM727 588h252l-125 420z" />
<glyph unicode="B" horiz-adv-x="1490" d="M102 0v1589h832q45 0 93 -11t94 -32.5t86 -50.5t69 -63q51 -61 78.5 -137t27.5 -156q0 -92 -36.5 -177t-106.5 -149q45 -29 83 -70t64.5 -90t42 -103t15.5 -106q0 -90 -34 -170.5t-94.5 -141t-140 -96.5t-171.5 -36h-902zM520 336h299q68 0 115 47t47 115q0 66 -47 112.5 t-115 46.5h-299v-321zM520 946h285q66 0 114 48t48 114t-48 114t-114 48h-285v-324z" />
<glyph unicode="C" horiz-adv-x="1480" d="M57 793q0 172 65.5 324.5t179.5 268t266.5 182t328.5 66.5q160 0 307.5 -58t272.5 -169l-328 -287q-119 84 -250 84q-86 0 -159.5 -32.5t-127 -90t-84 -132.5t-30.5 -156q0 -84 30.5 -159t84 -131.5t126 -90t158.5 -33.5q98 0 183 45t149 127l338 -275 q-127 -156 -300 -240.5t-370 -84.5q-176 0 -328.5 66.5t-266.5 182t-179.5 268.5t-65.5 325z" />
<glyph unicode="D" horiz-adv-x="1751" d="M102 0v1589h711q166 0 311.5 -62.5t254 -170t171 -253t62.5 -308.5q0 -164 -62.5 -309.5t-171 -253t-254 -170t-311.5 -62.5h-711zM520 387h244q86 0 160.5 32t130 87t87.5 130t32 159t-32 158.5t-87.5 130t-130 87t-160.5 31.5h-244v-815z" />
<glyph unicode="E" horiz-adv-x="1449" d="M92 0v1589h1268v-379h-854v-227h805v-379h-805v-227h854v-377h-1268z" />
<glyph unicode="F" horiz-adv-x="1370" d="M66 0v1556l32 33h1219v-391h-828v-217h730v-387h-730v-594h-423z" />
<glyph unicode="G" horiz-adv-x="1787" d="M92 791q0 172 64.5 325.5t178.5 269t266.5 182t328.5 66.5q188 0 357 -80.5t294 -228.5l-348 -231q-63 63 -140 97t-163 34q-90 0 -167 -36t-133.5 -95.5t-88 -138t-31.5 -167.5q0 -88 31.5 -167.5t89 -139t134.5 -95.5t167 -36q96 0 183 43t147 121h-281v383h698v-897 h-362v45q-184 -94 -389 -94q-178 0 -331 65.5t-265.5 179t-176 266t-63.5 329.5z" />
<glyph unicode="H" horiz-adv-x="1724" d="M119 0v1589h440v-606h563v606h445v-1589h-445v600h-563v-600h-440z" />
<glyph unicode="I" horiz-adv-x="688" d="M109 0v1589h428v-1589h-428z" />
<glyph unicode="J" horiz-adv-x="1327" d="M88 -29l82 408q31 -6 55.5 -8t46.5 -2q104 0 197.5 40t163 107.5t109.5 159.5t40 196v717h422v-733q0 -188 -72.5 -353t-197.5 -288t-292 -193.5t-355 -70.5q-47 0 -95.5 5t-103.5 15z" />
<glyph unicode="K" horiz-adv-x="1538" d="M78 0v1589h436v-534l436 534h537l-649 -751l628 -838h-516l-436 535v-535h-436z" />
<glyph unicode="L" horiz-adv-x="1357" d="M53 0v1589h441v-1196h835v-393h-1276z" />
<glyph unicode="M" horiz-adv-x="1871" d="M115 0v1589h389q20 0 35 -18l376 -629l379 629q14 18 33 18h391v-1589h-415v817l-340 -561q-6 -12 -20.5 -16t-24.5 -4q-12 0 -26.5 4t-21.5 16l-340 561v-817h-415z" />
<glyph unicode="N" horiz-adv-x="1646" d="M104 2v1587h422l553 -856v856h426v-1587h-426l-551 848v-848h-424z" />
<glyph unicode="O" horiz-adv-x="1916" d="M104 791q0 174 67 327.5t181.5 267t268 180t329.5 66.5q174 0 329 -66.5t269.5 -180t181 -267t66.5 -327.5t-66.5 -328t-181 -267.5t-269.5 -179t-329 -65.5q-176 0 -329.5 65.5t-268 179t-181.5 267t-67 328.5zM532 791q0 -86 32 -166t87.5 -139.5t132 -95.5t166.5 -36 t167 36t132.5 95.5t87 139.5t31.5 166q0 88 -31.5 166.5t-87 138t-132.5 95.5t-167 36t-166.5 -36t-132 -95.5t-87.5 -138t-32 -166.5z" />
<glyph unicode="P" horiz-adv-x="1437" d="M78 0v1589h715q115 0 220 -39t186 -108.5t129 -167.5t48 -215q0 -119 -48 -221.5t-129 -179t-186 -120.5t-220 -44h-289v-494h-426zM514 893h248q37 0 69.5 13.5t57 37t39 54t14.5 67.5t-14.5 67.5t-39 54t-57 37t-69.5 13.5h-248v-344z" />
<glyph unicode="Q" horiz-adv-x="1929" d="M102 797q0 174 68 326.5t182.5 266t269 179t328.5 65.5t329 -66.5t269.5 -181t181 -268t66.5 -327.5q0 -127 -37 -247t-108 -225l168 -319h-406l-35 63q-94 -59 -202.5 -85.5t-219.5 -26.5q-129 0 -253.5 36t-231.5 107q-86 59 -154.5 137t-115.5 169.5t-73 191.5 t-26 205zM532 780q0 -90 33 -169t90.5 -138t135 -93t170.5 -34q61 0 121.5 17.5t111.5 54.5l-68 133h193q63 109 63 227q0 88 -32.5 166t-90 137.5t-135.5 94t-168 34.5q-88 0 -165.5 -33.5t-135 -92t-90.5 -137.5t-33 -167z" />
<glyph unicode="R" horiz-adv-x="1626" d="M90 0v1589h797q57 0 116.5 -21.5t115 -57t102.5 -81t79 -92.5q41 -59 62.5 -138t21.5 -150q0 -119 -55 -221.5t-153 -172.5l372 -655h-477l-276 492h-269l2 -492h-438zM514 893h248q37 0 69.5 13.5t57 37t39 54t14.5 67.5t-14.5 67.5t-39 54t-57 37t-69.5 13.5h-248v-344 z" />
<glyph unicode="S" horiz-adv-x="1581" d="M72 117q0 2 8 16t20.5 35.5t28.5 49.5t33 56q35 57 65.5 108.5t42.5 74.5q27 -10 52 -25q111 -55 222 -85t236 -30q35 0 75 3.5t73 15.5t54.5 37.5t21.5 72.5q0 23 -12.5 40.5t-31 30.5t-39 23.5t-38.5 16.5q-43 16 -88 24.5t-90 18.5q-59 14 -117 26.5t-111 28.5 q-55 16 -105 36t-93 46q-88 53 -140.5 142.5t-52.5 236.5q0 51 11.5 103.5t33.5 99.5q45 94 116.5 155.5t159 96.5t183.5 49t192 14q158 0 311.5 -37.5t292.5 -123.5q-51 -86 -99 -169t-97 -169q-119 57 -230.5 94t-240.5 37q-31 0 -64.5 -3t-62.5 -15.5t-47.5 -36 t-18.5 -62.5q0 -29 13 -49q14 -23 52 -40.5t93 -31.5t120.5 -27.5t137.5 -31.5q70 -18 140.5 -42t133 -57.5t111.5 -80t78 -109.5q23 -47 31 -101.5t8 -107.5q0 -156 -63.5 -256t-166 -158.5t-231.5 -82t-258 -23.5q-160 0 -316.5 38t-299.5 105q-4 0 -21 8q-16 10 -16 15z " />
<glyph unicode="T" horiz-adv-x="1517" d="M76 1225v364h1362v-364l-29 -29h-436v-1196h-432v1196h-437z" />
<glyph unicode="U" horiz-adv-x="1572" d="M104 582v1007h443v-981q0 -45 18.5 -83t49 -65.5t70.5 -43t83 -15.5q45 0 85 15.5t70.5 43t49 65.5t18.5 83v981h443v-1007q0 -109 -36 -205t-100.5 -174t-152.5 -134.5t-191 -86.5q-45 -14 -92 -22.5t-94 -8.5t-93 8t-91 23q-102 31 -190.5 87t-153 134t-100.5 174 t-36 205z" />
<glyph unicode="V" horiz-adv-x="1681" d="M55 1585h475l308 -821l307 821h475l-590 -1585h-383z" />
<glyph unicode="W" horiz-adv-x="2516" d="M76 1585h459l296 -803l297 803h252l297 -803l297 803h459l-586 -1585h-340l-254 686l-252 -686h-339z" />
<glyph unicode="X" horiz-adv-x="1732" d="M76 0l534 807l-520 782h504l258 -389h20l258 389h504l-520 -782l537 -807h-504l-275 412h-20l-274 -412h-502z" />
<glyph unicode="Y" horiz-adv-x="1597" d="M14 1587h500l283 -553l280 553h500l-555 -1040v-547h-453v547z" />
<glyph unicode="Z" horiz-adv-x="1527" d="M92 1182v407h1321v-71l-618 -1110h632v-408h-1288v72l619 1110h-666z" />
<glyph unicode="[" horiz-adv-x="819" d="M92 -352v2324h627v-354h-268v-1616h264v-354h-623z" />
<glyph unicode="\" horiz-adv-x="1583" d="M-4 1589h457l1237 -1638h-469z" />
<glyph unicode="]" horiz-adv-x="897" d="M117 1618v354h624v-2324h-620v354h262v1616h-266z" />
<glyph unicode="^" horiz-adv-x="1476" d="M453 1831l288 117h2l289 -117l-8 -172l-283 110l-286 -110z" />
<glyph unicode="_" horiz-adv-x="1673" d="M113 0v272h1407v-272h-1407z" />
<glyph unicode="`" horiz-adv-x="1081" d="M-39 1718v168h1196v-168h-1196z" />
<glyph unicode="a" horiz-adv-x="1458" d="M68 0l493 1350h328l493 -1350h-397l-67 182h-386l-67 -182h-397zM639 516h172l-86 262z" />
<glyph unicode="b" horiz-adv-x="1267" d="M90 0v1350h696q39 0 80 -10.5t80 -28t74 -42t59 -55.5q43 -53 66.5 -118.5t23.5 -132.5q0 -78 -27.5 -148t-80.5 -123q72 -49 107.5 -135t35.5 -172q0 -78 -26.5 -148.5t-74.5 -123t-113.5 -83t-145.5 -30.5h-754zM465 309h227q49 0 84 35t35 84t-35 84t-84 35h-227v-238 zM465 817h215q49 0 83 35t34 84q0 47 -34 82t-83 35h-215v-236z" />
<glyph unicode="c" horiz-adv-x="1257" d="M55 674q0 145 54.5 275t149.5 227.5t224 155t277 57.5q135 0 260 -50.5t240 -154.5l-293 -258q-105 75 -202 75h-3q-68 0 -125 -26.5t-99 -71.5t-67 -104.5t-25 -124.5q0 -66 24 -126.5t66 -105.5t99 -71.5t125 -26.5q156 0 270 152l301 -250q-115 -141 -260 -214 t-311 -73q-147 0 -276.5 57.5t-224.5 154.5t-149.5 227t-54.5 276z" />
<glyph unicode="d" horiz-adv-x="1486" d="M92 0v1350h608q139 0 262 -53.5t215.5 -144.5t145.5 -214t53 -262t-53 -262t-145.5 -215.5t-215.5 -145.5t-262 -53h-608zM475 352h187q68 0 126 25.5t102 70t69.5 102.5t25.5 126t-25.5 126t-69.5 102t-102 69.5t-126 25.5h-187v-647z" />
<glyph unicode="e" horiz-adv-x="1232" d="M84 0v1350h1071v-338h-715v-166h676v-340h-676v-166h715v-340h-1071z" />
<glyph unicode="f" horiz-adv-x="1165" d="M61 0v1315l35 35h1020v-353h-678v-170h613v-356h-613v-471h-377z" />
<glyph unicode="g" horiz-adv-x="1519" d="M84 672q0 147 54.5 277t149.5 228.5t224 156t276 57.5q160 0 304.5 -71t257.5 -206l-314 -211q-111 115 -245 115q-72 0 -132.5 -28.5t-104.5 -76t-69.5 -111t-25.5 -132.5q0 -70 25.5 -132.5t69.5 -110.5t104.5 -75.5t132.5 -27.5q68 0 130 27.5t107 76.5h-213v348h608 v-776h-331v29q-145 -70 -306 -70q-150 0 -278.5 55.5t-223 151.5t-147.5 226t-53 280z" />
<glyph unicode="h" horiz-adv-x="1466" d="M98 0v1350h404v-498h428v498h403v-1350h-403v487h-428v-487h-404z" />
<glyph unicode="i" horiz-adv-x="583" d="M78 0v1350h395v-1350h-395z" />
<glyph unicode="j" horiz-adv-x="1128" d="M76 -20l71 364q35 -6 56.5 -8t40.5 -2q82 0 155.5 31.5t129 87t87 130t31.5 158.5v609h369v-625q0 -160 -59.5 -299t-163 -242.5t-242.5 -164t-297 -60.5q-39 0 -81 5t-97 16z" />
<glyph unicode="k" horiz-adv-x="1308" d="M70 0v1350h387v-414l334 414h473l-545 -674l545 -676h-473l-334 414v-414h-387z" />
<glyph unicode="l" horiz-adv-x="1155" d="M51 0v1350h379v-1008h700v-342h-1079z" />
<glyph unicode="m" horiz-adv-x="1591" d="M98 0v1350h340q27 0 45 -25l295 -491l297 491q14 25 43 25h340v-1350h-379v631l-245 -406q-10 -16 -26.5 -21t-29.5 -5q-10 0 -26.5 5t-26.5 21l-246 406v-631h-381z" />
<glyph unicode="n" horiz-adv-x="1398" d="M98 0v1350h373l416 -658v658h381v-1350h-373l-416 653v-653h-381z" />
<glyph unicode="o" horiz-adv-x="1630" d="M92 674q0 147 56.5 277t153.5 227.5t228.5 154t278.5 56.5t278.5 -56.5t228.5 -153t153.5 -227.5t56.5 -278t-56.5 -278.5t-153.5 -227.5t-228.5 -152.5t-278.5 -56.5t-278.5 56.5t-228.5 152.5t-153.5 227t-56.5 279zM479 674q0 -70 25.5 -132.5t69.5 -110.5 t104.5 -75.5t130.5 -27.5t130 27.5t104 75.5t69 110.5t25 132.5t-25 132t-69 109.5t-104 75t-130 27.5t-130.5 -27.5t-104.5 -75t-69.5 -110t-25.5 -131.5z" />
<glyph unicode="p" horiz-adv-x="1306" d="M18 0v1350h625q100 0 193.5 -36t165 -100.5t114.5 -151.5t43 -188q0 -102 -43 -188t-113.5 -148.5t-165 -98.5t-194.5 -36h-237v-403h-388zM412 762h219q53 0 90 38t37 87q0 51 -38 93t-89 42h-219v-260z" />
<glyph unicode="q" horiz-adv-x="1640" d="M90 676q0 147 56.5 277t154.5 227.5t228 153t278 55.5q150 0 280 -56.5t227 -154t153.5 -228.5t56.5 -278q0 -104 -30 -203.5t-87 -187.5l147 -281h-372l-27 45q-78 -45 -165 -65.5t-177 -20.5q-109 0 -214 29.5t-198 91.5q-147 102 -229 259t-82 337zM479 664 q0 -72 25.5 -134.5t71 -108.5t106.5 -74t133 -28q47 0 91 12.5t81 37.5l-63 123h178q45 76 45 170q0 70 -25.5 132t-70.5 108t-106.5 74t-131.5 28t-131 -27t-106.5 -73t-71 -108.5t-25.5 -131.5z" />
<glyph unicode="r" horiz-adv-x="1380" d="M84 0v1350h704q47 0 97.5 -13.5t97.5 -37t87 -56.5t69 -74q35 -51 53 -110.5t18 -120.5q0 -98 -45 -185t-123 -147l316 -606h-426l-213 412h-240v-412h-395zM479 778h199q53 0 92 38t39 91t-39 90t-92 37h-199v-256z" />
<glyph unicode="s" horiz-adv-x="1343" d="M68 111q0 2 22.5 44t52.5 95q29 47 53.5 91t41.5 71q23 -10 34 -15.5t21 -11.5q90 -45 180 -69.5t189 -24.5h27t28 2q31 0 55 8q25 10 42 28.5t17 55.5q0 27 -20 42t-43 26q-14 6 -27 10q-35 14 -70.5 21.5t-72.5 15.5q-49 10 -96 21t-92 24q-47 14 -88 31.5t-78 39.5 q-76 47 -121 124t-45 204q0 90 39 174q39 82 99 134.5t134 83t154 42t160 11.5q131 0 261 -33t255 -111q-47 -80 -88 -152.5t-88 -152.5q-104 53 -195.5 83t-196.5 30q-20 0 -45.5 -1t-47 -9.5t-37 -25t-15.5 -46.5q0 -18 10 -35q8 -16 36 -27.5t75 -23.5q45 -12 99 -23.5 t112 -27.5q57 -14 116.5 -34t111.5 -49.5t94 -69.5t67 -95q18 -41 25.5 -88t7.5 -92q0 -135 -54.5 -221.5t-141.5 -137.5t-195 -70.5t-214 -19.5q-133 0 -263 33t-249 90q-2 0 -6 2t-10 4q-10 6 -15 13t-5 12z" />
<glyph unicode="t" horiz-adv-x="1290" d="M70 1032v318h1147v-318l-33 -33h-348v-999h-385v999h-349z" />
<glyph unicode="u" horiz-adv-x="1337" d="M90 500v850h399v-830q0 -33 13.5 -60.5t36 -48t52.5 -32.5t62 -12q33 0 62.5 12t52.5 32.5t36 48t13 60.5v830h400v-850q0 -94 -31 -177t-85 -150t-129 -116t-161 -73q-37 -10 -77 -17.5t-81 -7.5t-81 7t-76 18q-86 25 -160 73.5t-129 115.5t-86 150t-31 177z" />
<glyph unicode="v" horiz-adv-x="1429" d="M59 1350h402l252 -693l252 693h399l-492 -1350h-321z" />
<glyph unicode="w" horiz-adv-x="2140" d="M61 1350h412l240 -648l239 648h230l237 -648l240 648h412l-500 -1350h-303l-201 549l-203 -549h-303z" />
<glyph unicode="x" horiz-adv-x="1472" d="M55 0l453 686l-440 664h452l213 -322l213 322h453l-438 -664l452 -686h-452l-228 342l-225 -342h-453z" />
<glyph unicode="y" horiz-adv-x="1357" d="M41 1350h434l203 -424l201 424h436l-443 -883v-467h-391v467z" />
<glyph unicode="z" horiz-adv-x="1298" d="M78 975v375h1122v-84l-493 -891h505v-375h-1095v84l495 891h-534z" />
<glyph unicode="{" horiz-adv-x="831" d="M70 788q45 80 68.5 187.5t43 221.5t46 224.5t75.5 197.5t131 140t215 53q45 0 103 -10l-54 -299q-14 2 -27.5 4t-27.5 2q-33 0 -58.5 -32.5t-45 -85t-33.5 -115t-23.5 -122.5t-16.5 -110.5t-11 -76.5q-6 -45 -14.5 -91.5t-24.5 -87.5q16 -41 26.5 -109.5t21.5 -148 t24.5 -161.5t36 -147.5t57 -107.5t90.5 -42q16 0 26 2l54 -297q-58 -10 -103 -10q-133 0 -215 53t-131 140t-75.5 196.5t-46 223.5t-43 221.5t-68.5 186.5z" />
<glyph unicode="|" horiz-adv-x="700" d="M279 -49v1683h319v-1683h-319z" />
<glyph unicode="}" horiz-adv-x="917" d="M100 -223l54 297q10 -2 26 -2q53 0 89 42t58.5 107.5t36 147.5t24.5 161.5t21.5 148.5t26.5 109q-16 41 -24.5 87.5t-14.5 91.5q-4 27 -10 77t-15.5 110t-23.5 122.5t-33.5 115t-46 85t-59.5 32.5q-14 0 -27.5 -2t-27.5 -4l-54 299q57 10 105 10q131 0 213 -53t132 -140 t75.5 -197.5t45 -224.5t43 -220.5t68.5 -188.5q-45 -82 -67.5 -188t-43 -220t-46 -223.5t-74.5 -196.5t-131 -140t-215 -53q-47 0 -105 10z" />
<glyph unicode="~" horiz-adv-x="845" d="M205 1831q0 25 24.5 53.5t40.5 44.5q29 29 64 51.5t78 22.5t79.5 -20.5t71.5 -46t68 -46t63 -20.5q45 0 72 34.5t49 67.5q25 -23 48.5 -44t43.5 -50q-6 -33 -26.5 -67.5t-48 -63.5t-62.5 -47.5t-70 -18.5q-41 0 -77.5 20.5t-70.5 46.5t-66.5 46.5t-63.5 20.5t-46.5 -8.5 t-25.5 -21.5t-19 -29.5t-26 -35.5q-10 0 -27.5 12.5t-34 30t-27.5 37t-11 31.5z" />
<glyph unicode="&#xa2;" horiz-adv-x="1357" d="M102 860q0 113 38 216.5t105.5 186.5t161 140t203.5 80v233h228v-233q92 -16 178 -58.5t158 -107.5l-256 -225q-37 29 -80 45v-553q80 35 139 108l262 -215q-76 -98 -179 -160.5t-222 -85.5v-221h-228v226q-111 23 -204 81t-160.5 141t-105.5 186.5t-38 215.5zM444 860 q0 -86 45.5 -159.5t120.5 -112.5v542q-76 -37 -121 -110.5t-45 -159.5z" />
<glyph unicode="&#xa3;" horiz-adv-x="1675" d="M76 782v373h125q8 133 65.5 247t149.5 196.5t212 130t251 47.5q168 0 316 -68t271 -180l-249 -273q-78 72 -165 111t-194 39q-53 0 -100 -19.5t-85 -53.5t-64.5 -80t-35.5 -97h664v-373h-645q45 -74 71.5 -157.5t26.5 -169.5q0 -43 -6 -86q63 -2 125.5 -9.5t125 -16.5 t126 -16.5t127.5 -7.5q59 0 116.5 20.5t110.5 45.5l160 -334q-102 -47 -207.5 -74.5t-220.5 -27.5q-66 0 -129.5 8t-127 17.5t-128 17.5t-129.5 8q-113 0 -221.5 -39t-212.5 -76v357q43 45 81.5 99t38.5 122q0 33 -11 63.5t-29.5 60t-40 56.5t-39.5 51v88h-123z" />
<glyph unicode="&#xa5;" horiz-adv-x="1617" d="M82 1661h428l307 -649l305 649h428l-538 -1092v-569h-389v569zM201 745v201h1226v-201h-1226zM217 397v199h1178v-199h-1178z" />
<glyph unicode="&#xa8;" horiz-adv-x="634" d="M283 1718v168h170v-168h-170zM512 1718v168h170v-168h-170z" />
<glyph unicode="&#xa9;" horiz-adv-x="856" d="M135 1438q0 61 23.5 116.5t64.5 96.5t96.5 64.5t116.5 23.5t115.5 -23.5t95.5 -64.5t64.5 -96.5t23.5 -116.5t-23.5 -115.5t-64.5 -95.5t-95 -64.5t-116 -23.5q-61 0 -116.5 23.5t-96.5 64.5t-64.5 95t-23.5 116zM254 1438q0 -37 13.5 -72t38 -60.5t58 -41t72.5 -15.5 q78 0 129 56.5t51 132.5q0 78 -51 134t-129 56q-39 0 -72.5 -15.5t-58 -42t-38 -60t-13.5 -72.5zM330 1440q0 47 30.5 80.5t77.5 33.5q25 0 47.5 -9t40.5 -23l-51 -45q-16 10 -35 10q-20 0 -31.5 -14.5t-11.5 -32.5q0 -16 12.5 -31.5t30.5 -15.5q14 0 24.5 7t20.5 17l54 -43 q-20 -23 -45 -36t-54 -13q-47 0 -78.5 35t-31.5 80z" />
<glyph unicode="&#xab;" horiz-adv-x="1226" d="M207 1688l289 -2l-23 -574l-248 2zM739 1688l289 -2l-22 -574l-248 2z" />
<glyph unicode="&#xad;" horiz-adv-x="1656" d="M629 504v270h719v-270h-719z" />
<glyph unicode="&#xae;" horiz-adv-x="1087" d="M160 1358q0 80 29.5 149.5t82 121.5t123 83t150.5 31t149.5 -31t121.5 -83t83 -121.5t31 -149.5t-31 -150.5t-83 -123t-121.5 -82t-149.5 -29.5t-150.5 29.5t-123 82t-82 123t-29.5 150.5zM311 1358q0 -49 17.5 -93t49.5 -78t75 -53.5t92 -19.5t91 19.5t73.5 53.5t49 78 t17.5 93t-17.5 92t-49 77t-73.5 53t-91 19t-92 -19t-75 -53t-49.5 -77t-17.5 -92zM438 1223v268h133q20 0 40 -12.5t30 -28.5q14 -20 14 -49q0 -43 -34 -68l63 -110h-82l-45 84h-45v-84h-74zM508 1374h43q12 0 21.5 8.5t9.5 20.5t-9.5 20.5t-21.5 8.5h-43v-58z" />
<glyph unicode="&#xb4;" horiz-adv-x="1081" d="M-39 1718v168h1196v-168h-1196z" />
<glyph unicode="&#xb8;" />
<glyph unicode="&#xbb;" horiz-adv-x="1226" d="M207 1688l289 -2l-23 -574l-248 2zM739 1688l289 -2l-22 -574l-248 2z" />
<glyph unicode="&#x152;" horiz-adv-x="2670" d="M92 793q0 174 66.5 327.5t181.5 267t268.5 180t327.5 66.5q123 0 231.5 -32.5t202.5 -92.5v78h1198v-368h-817v-240h770v-369h-770v-239h817v-369h-1198v74q-94 -57 -202.5 -89t-231.5 -32q-174 0 -327.5 65.5t-268.5 179t-181.5 266t-66.5 327.5zM510 793 q0 -90 32.5 -170t89 -141.5t134.5 -97.5t170 -36t170 36t134 97.5t89 141t33 170.5q0 88 -33 168.5t-89 142t-134 97.5t-170 36t-170 -36t-134.5 -97.5t-89 -142t-32.5 -168.5z" />
<glyph unicode="&#x153;" horiz-adv-x="2271" d="M78 674q0 147 57.5 278t155.5 227.5t230 153t282 56.5q92 0 178 -23t162 -63v49h1040v-346h-682v-158h643v-344h-643v-158h682v-346h-1040v45q-76 -41 -162 -62.5t-178 -21.5q-150 0 -282 55.5t-230 152.5t-155.5 227t-57.5 278zM467 674q0 -70 25.5 -133.5t70.5 -110.5 t106.5 -75.5t133.5 -28.5t133 28.5t105 75.5t70 110.5t26 133.5t-26 133t-70 110.5t-105 76t-133 28.5t-133.5 -28.5t-106.5 -76t-70.5 -111t-25.5 -132.5z" />
<glyph unicode="&#x160;" horiz-adv-x="1581" d="M72 117q0 2 8 16t20.5 35.5t28.5 49.5t33 56q35 57 65.5 108.5t42.5 74.5q27 -10 52 -25q111 -55 222 -85t236 -30q35 0 75 3.5t73 15.5t54.5 37.5t21.5 72.5q0 23 -12.5 40.5t-31 30.5t-39 23.5t-38.5 16.5q-43 16 -88 24.5t-90 18.5q-59 14 -117 26.5t-111 28.5 q-55 16 -105 36t-93 46q-88 53 -140.5 142.5t-52.5 236.5q0 51 11.5 103.5t33.5 99.5q45 94 116.5 155.5t159 96.5t183.5 49t192 14q158 0 311.5 -37.5t292.5 -123.5q-51 -86 -99 -169t-97 -169q-119 57 -230.5 94t-240.5 37q-31 0 -64.5 -3t-62.5 -15.5t-47.5 -36 t-18.5 -62.5q0 -29 13 -49q14 -23 52 -40.5t93 -31.5t120.5 -27.5t137.5 -31.5q70 -18 140.5 -42t133 -57.5t111.5 -80t78 -109.5q23 -47 31 -101.5t8 -107.5q0 -156 -63.5 -256t-166 -158.5t-231.5 -82t-258 -23.5q-160 0 -316.5 38t-299.5 105q-4 0 -21 8q-16 10 -16 15z M389 1841l60 154l286 -183l283 183l57 -176l-340 -189z" />
<glyph unicode="&#x161;" horiz-adv-x="1343" d="M68 111q0 2 22.5 44t52.5 95q29 47 53.5 91t41.5 71q23 -10 34 -15.5t21 -11.5q90 -45 180 -69.5t189 -24.5h27t28 2q31 0 55 8q25 10 42 28.5t17 55.5q0 27 -20 42t-43 26q-14 6 -27 10q-35 14 -70.5 21.5t-72.5 15.5q-49 10 -96 21t-92 24q-47 14 -88 31.5t-78 39.5 q-76 47 -121 124t-45 204q0 90 39 174q39 82 99 134.5t134 83t154 42t160 11.5q131 0 261 -33t255 -111q-47 -80 -88 -152.5t-88 -152.5q-104 53 -195.5 83t-196.5 30q-20 0 -45.5 -1t-47 -9.5t-37 -25t-15.5 -46.5q0 -18 10 -35q8 -16 36 -27.5t75 -23.5q45 -12 99 -23.5 t112 -27.5q57 -14 116.5 -34t111.5 -49.5t94 -69.5t67 -95q18 -41 25.5 -88t7.5 -92q0 -135 -54.5 -221.5t-141.5 -137.5t-195 -70.5t-214 -19.5q-133 0 -263 33t-249 90q-2 0 -6 2t-10 4q-10 6 -15 13t-5 12zM307 1575l55 194l287 -182l283 182l57 -194l-340 -189h-2z" />
<glyph unicode="&#x178;" horiz-adv-x="1597" d="M14 1587h500l283 -553l280 553h500l-555 -1040v-547h-453v547zM377 1718v168h366v-168h-366zM874 1718v168h367v-168h-367z" />
<glyph unicode="&#x17d;" horiz-adv-x="1527" d="M92 1182v407h1321v-71l-618 -1110h632v-408h-1288v72l619 1110h-666zM440 1780l58 194l284 -182l283 182l59 -194l-342 -189z" />
<glyph unicode="&#x17e;" horiz-adv-x="1298" d="M78 975v375h1122v-84l-493 -891h505v-375h-1095v84l495 891h-534zM307 1548l55 195l287 -182l283 182l57 -195l-340 -188h-2z" />
<glyph unicode="&#x192;" />
<glyph unicode="&#x2c6;" />
<glyph unicode="&#x2dc;" />
<glyph unicode="&#x2000;" horiz-adv-x="1001" />
<glyph unicode="&#x2001;" horiz-adv-x="2003" />
<glyph unicode="&#x2002;" horiz-adv-x="1001" />
<glyph unicode="&#x2003;" horiz-adv-x="2003" />
<glyph unicode="&#x2004;" horiz-adv-x="667" />
<glyph unicode="&#x2005;" horiz-adv-x="500" />
<glyph unicode="&#x2006;" horiz-adv-x="333" />
<glyph unicode="&#x2007;" horiz-adv-x="333" />
<glyph unicode="&#x2008;" horiz-adv-x="250" />
<glyph unicode="&#x2009;" horiz-adv-x="400" />
<glyph unicode="&#x200a;" horiz-adv-x="111" />
<glyph unicode="&#x2010;" horiz-adv-x="1656" d="M629 504v270h719v-270h-719z" />
<glyph unicode="&#x2011;" horiz-adv-x="1656" d="M629 504v270h719v-270h-719z" />
<glyph unicode="&#x2012;" horiz-adv-x="1656" d="M629 504v270h719v-270h-719z" />
<glyph unicode="&#x2013;" />
<glyph unicode="&#x2014;" />
<glyph unicode="&#x2018;" horiz-adv-x="663" d="M207 1688l289 -2l-23 -574l-248 2z" />
<glyph unicode="&#x2019;" horiz-adv-x="663" d="M207 1688l289 -2l-23 -574l-248 2z" />
<glyph unicode="&#x201a;" horiz-adv-x="753" d="M266 -264l41 508l283 -68l-111 -491z" />
<glyph unicode="&#x201c;" horiz-adv-x="1226" d="M207 1688l289 -2l-23 -574l-248 2zM739 1688l289 -2l-22 -574l-248 2z" />
<glyph unicode="&#x201d;" horiz-adv-x="1226" d="M207 1688l289 -2l-23 -574l-248 2zM739 1688l289 -2l-22 -574l-248 2z" />
<glyph unicode="&#x201e;" horiz-adv-x="1052" d="M217 1677l258 -2l-22 -600h-217zM627 1677l258 -2l-23 -600h-217z" />
<glyph unicode="&#x2026;" horiz-adv-x="1611" d="M61 139q0 39 15.5 74t42 61.5t62.5 41t75 14.5t75 -14.5t62.5 -41t42 -61.5t15.5 -74q0 -80 -57.5 -134t-137.5 -54q-39 0 -75 14.5t-62.5 40t-42 59t-15.5 74.5zM594 139q0 39 15.5 74t42 61.5t62.5 41t74 14.5q39 0 75 -14.5t62.5 -41t42 -61.5t15.5 -74 q0 -80 -57.5 -134t-137.5 -54q-39 0 -74.5 14.5t-62 40t-42 59t-15.5 74.5zM1126 139q0 39 15.5 74t42 61.5t62.5 41t75 14.5t75 -14.5t62.5 -41t42 -61.5t15.5 -74q0 -80 -57.5 -134t-137.5 -54q-39 0 -75 14.5t-62.5 40t-42 59t-15.5 74.5z" />
<glyph unicode="&#x202f;" horiz-adv-x="400" />
<glyph unicode="&#x2039;" horiz-adv-x="1572" d="M0 807l1313 731l194 -295l-784 -436l784 -436l-194 -295z" />
<glyph unicode="&#x203a;" horiz-adv-x="1492" d="M-16 371l784 436l-784 436l194 295l1315 -731l-1315 -731z" />
<glyph unicode="&#x205f;" horiz-adv-x="500" />
<glyph unicode="&#x20ac;" horiz-adv-x="1628" d="M-2 530v215h1280v-215h-1280zM-2 877v215h1280v-215h-1280zM199 791q0 178 69.5 335.5t189.5 276.5t278.5 188.5t334.5 69.5q143 0 274.5 -50t237.5 -145l-283 -288q-106 76 -235 75q-94 0 -178 -36.5t-146.5 -100t-99.5 -146.5t-37 -177q0 -96 36 -179.5t97.5 -144.5 t145.5 -96t180 -35q98 0 186 39t148 117l291 -275q-115 -141 -275 -215t-340 -74q-178 0 -336.5 68t-278.5 184.5t-189.5 273.5t-69.5 335z" />
<glyph unicode="&#x2122;" horiz-adv-x="878" d="M4 1649v94h354v-94l-8 -9h-112v-311h-113v311h-113zM379 1329v414h102q4 0 8 -4l99 -164l98 164q4 4 8 4h103v-414h-109v213l-88 -145q-4 -6 -12 -6q-10 0 -13 6l-88 145v-213h-108z" />
<glyph unicode="&#x25fc;" horiz-adv-x="1351" d="M0 0v1352h1352v-1352h-1352z" />
</font>
</defs>
</svg>
